[Vietsub] Spider-Man: No Way Home 2021 1080p HDTS H264 Audio mới

Thảo luận trong 'mHD, SD' bắt đầu bởi Michael Chu, 29/12/21.

  1. Michael Chu

    Michael Chu Well-Known Member

    Tham gia ngày:
    23/12/21
    Bài viết:
    27
    Đã được cảm ơn:
    377
    Spider-Man: No Way Home 2021 1080p HDTS âm thanh tốt

    Người Nhện: Không Còn Nhà (Việt Sub)

    Bản này mình tự sync lại sub việt, + sync âm thanh chất lượng tốt vào còn video HDTS giữ nguyên nên bản này không giống bản HDTS 8GB nào cả



    [​IMG]

    [​IMG] [​IMG]

    Mã:
    Unique ID                      : 105049731628651958051164259785374721832 (0x4F07D7A62C3F7E02680BFDB94CD06728)
    Complete name                  : Spider-Man.No.Way.Home.2021.720p.HDTS.x264.B4ND1T69\Spider-Man.No.Way.Home.2021.1080p.HDTS.H264.AAC2.0.mkv
    Format                         : Matroska
    Format version                 : Version 4
    File size                      : 8.40 GiB
    Duration                       : 2 h 23 min
    Overall bit rate mode          : Variable
    Overall bit rate               : 8 395 kb/s
    
    
    Encoded date                   : UTC 2021-12-29 09:28:45
    Writing application            : mkvmerge v61.0.0 ('So') 64-bit
    Writing library                : libebml v1.4.2 + libmatroska v1.6.4
    Video
    ID                             : 1
    Format                         : AVC
    Format/Info                    : Advanced Video Codec
    Format profile                 : [email protected]
    Format settings                : CABAC / 4 Ref Frames
    Format settings, CABAC         : Yes
    Format settings, Reference fra : 4 frames
    Codec ID                       : V_MPEG4/ISO/AVC
    Duration                       : 2 h 18 min
    Bit rate mode                  : Variable
    Bit rate                       : 8 351 kb/s
    Maximum bit rate               : 10.0 Mb/s
    Width                          : 1 920 pixels
    Height                         : 1 080 pixels
    Display aspect ratio           : 16:9
    Frame rate mode                : Constant
    Frame rate                     : 30.000 FPS
    Standard                       : NTSC
    Color space                    : YUV
    Chroma subsampling             : 4:2:0
    Bit depth                      : 8 bits
    Scan type                      : Progressive
    Bits/(Pixel*Frame)             : 0.134
    Stream size                    : 8.08 GiB (96%)
    Default                        : Yes
    Forced                         : No
    Color range                    : Limited
    Color primaries                : BT.601 NTSC
    Transfer characteristics       : BT.601
    Matrix coefficients            : BT.601
    Audio
    ID                             : 2
    Format                         : AAC LC
    Format/Info                    : Advanced Audio Codec Low Complexity
    Codec ID                       : A_AAC-2
    Duration                       : 2 h 23 min
    Bit rate                       : 317 kb/s
    Channel(s)                     : 2 channels
    Channel layout                 : L R
    Sampling rate                  : 48.0 kHz
    Frame rate                     : 46.875 FPS (1024 SPF)
    Compression mode               : Lossy
    Stream size                    : 325 MiB (4%)
    Language                       : Norwegian
    Default                        : Yes
    Forced                         : No
    Text
    ID                             : 3
    Format                         : UTF-8
    Codec ID                       : S_TEXT/UTF8
    Codec ID/Info                  : UTF-8 Plain Text
    Duration                       : 2 h 18 min
    Bit rate                       : 83 b/s
    Count of elements              : 2032
    Stream size                    : 85.0 KiB (0%)
    Language                       : Vietnamese
    Default                        : Yes
    Forced                         : No








    [​IMG]


    [​IMG]
    [​IMG] [​IMG] [​IMG] [​IMG] [​IMG] [​IMG]

    Chỉnh Sub trong VLC như ScreenShot:

    [​IMG]
    Download
    [​IMG]
    8,4 GB
    Sub Việt có sẵn trong phim
     
    Chỉnh sửa cuối: 1/1/22
  2. trinhson

    trinhson New Member

    Tham gia ngày:
    29/12/21
    Bài viết:
    1
    Đã được cảm ơn:
    2
    ko thấy link bác ơi :D
     
    binhtph and Michael Chu like this.
  3. garunggp

    garunggp Well-Known Member

    Tham gia ngày:
    9/11/11
    Bài viết:
    261
    Đã được cảm ơn:
    2,015
    F5 đi bạn. like bài viết rồi f5 mới hiện link bạn
     
    Michael Chu and trinhson like this.
  4. garunggp

    garunggp Well-Known Member

    Tham gia ngày:
    9/11/11
    Bài viết:
    261
    Đã được cảm ơn:
    2,015
    Hn tình hình ko biết bao giờ mới mở rạp đây....
     
    Michael Chu cảm ơn bài này.
  5. Michael Chu

    Michael Chu Well-Known Member

    Tham gia ngày:
    23/12/21
    Bài viết:
    27
    Đã được cảm ơn:
    377
    Nhấn nút Cảm ơn (dưới chân bài) để thấy link!
    đây bác
     
    Chỉnh sửa cuối: 29/12/21
    hisang, TRICDV, ktkmpng1111 and 4 others like this.
  6. thjengjahuy

    thjengjahuy Active Member

    Tham gia ngày:
    5/4/14
    Bài viết:
    156
    Đã được cảm ơn:
    43
    phim hay thế này chịu khó hóng bản đẹp hơn xem cho sướng, chứ tình hình như hiện nay ở HN thì có mở rạp cũng chả dám đi xem :D
     
    Michael Chu cảm ơn bài này.
  7. Ignis

    Ignis Member

    Tham gia ngày:
    4/11/11
    Bài viết:
    54
    Đã được cảm ơn:
    7
    Nghề nghiệp:
    Sinh Viên
    Nơi ở:
    Việt Nam
    Bật lên không có sub bạn ơi :v
     
  8. Michael Chu

    Michael Chu Well-Known Member

    Tham gia ngày:
    23/12/21
    Bài viết:
    27
    Đã được cảm ơn:
    377
    Có sub nha, dùng vlc là thấy
     
  9. StarPlus

    StarPlus Active Member

    Tham gia ngày:
    11/11/21
    Bài viết:
    120
    Đã được cảm ơn:
    79
    Giới tính:
    Nam
    Bản này xem tạm cũng OK, chất lượng ~ DVD nên xem trên màn hình 32' cũng không đến nỗi.
     
    Michael Chu cảm ơn bài này.
  10. xd0jv0d0jx

    xd0jv0d0jx New Member

    Tham gia ngày:
    29/11/09
    Bài viết:
    28
    Đã được cảm ơn:
    20
    Mình cũng thấy không có sub
     
    Michael Chu cảm ơn bài này.
  11. Michael Chu

    Michael Chu Well-Known Member

    Tham gia ngày:
    23/12/21
    Bài viết:
    27
    Đã được cảm ơn:
    377
    Dùng VLC hoặc pm khác nha, bao nhiêu người tải về ko thấy nói gì, thì bạn xem bạn xài pm hoặc xem qua gì ko đọc đc sub thôi bạn
     
    Ignis cảm ơn bài này.
  12. Akuma1110

    Akuma1110 Member

    Tham gia ngày:
    2/8/13
    Bài viết:
    41
    Đã được cảm ơn:
    9
    Cám ơn bác đã up bản này, coi cũng tạm ổn đó :3
     
    Michael Chu cảm ơn bài này.
  13. Tún Darlin

    Tún Darlin New Member

    Tham gia ngày:
    1/1/22
    Bài viết:
    1
    Đã được cảm ơn:
    1
    em like r ko thấy link a ơi
     
    Michael Chu cảm ơn bài này.
  14. Michael Chu

    Michael Chu Well-Known Member

    Tham gia ngày:
    23/12/21
    Bài viết:
    27
    Đã được cảm ơn:
    377
    hahuytap cảm ơn bài này.
  15. hahuytap

    hahuytap Well-Known Member

    Tham gia ngày:
    16/6/09
    Bài viết:
    996
    Đã được cảm ơn:
    275
    Có thể dùng media player classic để xem cũng thấy sub.
     
    Michael Chu cảm ơn bài này.
  16. Ân Snyder

    Ân Snyder Active Member

    Tham gia ngày:
    15/9/21
    Bài viết:
    496
    Đã được cảm ơn:
    236
    Giới tính:
    Nam
    xem phim thì cài phần mềm chuyên dụng mà xem, lười tới nái, mấy phần mềm có sẵn của window như hạch ấy.
     
    Michael Chu cảm ơn bài này.
  17. chusocsieuquay_62

    chusocsieuquay_62 New Member

    Tham gia ngày:
    3/1/13
    Bài viết:
    6
    Đã được cảm ơn:
    9
    phim quay cứ bị làm mờ đi, xem ức chế thật các bác ạ
     

Chia sẻ trang này