[Viễn Tưởng] Avengers: Infinity War 2018 1080p BluRay DTS-HD MA 7.1 x264-HDT ~ Cuộc Chiến Vô Cực

Thảo luận trong 'Fshare.vn' bắt đầu bởi hungdaita, 1/8/18.

  1. Tử Thần Mắt Xanh

    Tử Thần Mắt Xanh New Member

    Tham gia ngày:
    8/1/18
    Bài viết:
    13
    Đã được cảm ơn:
    2
    Giới tính:
    Nam
    Các bác cho e hỏi bản 1080p nào k có viền đen trên và dưới video, e tìm mãi mà k biết bản nào. :(
     
  2. qazwsxrfvtgb

    qazwsxrfvtgb Uploader

    Tham gia ngày:
    26/5/18
    Bài viết:
    868
    Đã được cảm ơn:
    19,516
    1920x1080 thì có 2 viền đen đúng cmnr, bác hỏi gì ngộ nghĩnh vậy
     
    Tử Thần Mắt Xanh cảm ơn bài này.
  3. Bleeding Edge

    Bleeding Edge Active Member

    Tham gia ngày:
    29/4/17
    Bài viết:
    130
    Đã được cảm ơn:
    182
    Giới tính:
    Nam
    Bản Open Matte full màn hình nhé.
     
    Tử Thần Mắt Xanh cảm ơn bài này.
  4. qazwsxrfvtgb

    qazwsxrfvtgb Uploader

    Tham gia ngày:
    26/5/18
    Bài viết:
    868
    Đã được cảm ơn:
    19,516
    bản này hdvietnam không thấy ai up, bên torviet thì có
     
    Tử Thần Mắt Xanh cảm ơn bài này.
  5. Tử Thần Mắt Xanh

    Tử Thần Mắt Xanh New Member

    Tham gia ngày:
    8/1/18
    Bài viết:
    13
    Đã được cảm ơn:
    2
    Giới tính:
    Nam
    Vậy là resolution của nó trên 2k là sẽ mất viền đen à bác? E còn mù mờ cái này lắm :D
     
  6. Tử Thần Mắt Xanh

    Tử Thần Mắt Xanh New Member

    Tham gia ngày:
    8/1/18
    Bài viết:
    13
    Đã được cảm ơn:
    2
    Giới tính:
    Nam
    Tks bác

    Chắc đành đợi bác nào hảo tâm đưa lên Fshare v :(
     
  7. Bleeding Edge

    Bleeding Edge Active Member

    Tham gia ngày:
    29/4/17
    Bài viết:
    130
    Đã được cảm ơn:
    182
    Giới tính:
    Nam
    Full hay không tùy nhà phát hành bác ạ, không liên quan resolution đâu.
     
  8. qazwsxrfvtgb

    qazwsxrfvtgb Uploader

    Tham gia ngày:
    26/5/18
    Bài viết:
    868
    Đã được cảm ơn:
    19,516
    tuỳ thuộc màn hình của bác kích cỡ hay độ phân giải thế nào nữa
    với lại bác định nghĩa full resolution là gì, ý là không có viền đen khi coi trên màn hình bác hay sao
     
  9. Tử Thần Mắt Xanh

    Tử Thần Mắt Xanh New Member

    Tham gia ngày:
    8/1/18
    Bài viết:
    13
    Đã được cảm ơn:
    2
    Giới tính:
    Nam
    Tks 2 bác, giờ e mới biết cái vụ full resolution k lquan đến vụ viền đen :D
     
  10. xiuot45

    xiuot45 New Member

    Tham gia ngày:
    5/8/10
    Bài viết:
    9
    Đã được cảm ơn:
    4
    thank bác
     
  11. kimphongloi

    kimphongloi Member

    Tham gia ngày:
    3/7/11
    Bài viết:
    68
    Đã được cảm ơn:
    40
    bản nào sẽ coi được bằng chương trình spash ex pro vậy bác. mình tải toàn bị hư tiếng ko???
     
    hungdaita cảm ơn bài này.
  12. bondl4000

    bondl4000 New Member

    Tham gia ngày:
    1/2/10
    Bài viết:
    8
    Đã được cảm ơn:
    2
    thanks you
     
  13. hungdaita

    hungdaita ☆☆☆ TayTO ☆☆☆

    Tham gia ngày:
    18/3/12
    Bài viết:
    70,968
    Đã được cảm ơn:
    1,798,064
    Giới tính:
    Nam
    Nghề nghiệp:
    Encoder ~ Share more share
    Nơi ở:
    Hà Nội - Việt Nam
    Trước kia mình cũng khoái dùng Splash, nhưng đã bỏ lâu rồi.
    Vừa xem xong phim 5 phút trước 1080p DON với Potplayer.
    Phim quá hay :D
    Tải PotPlayer ở ĐÂY
     
  14. tyan

    tyan Member

    Tham gia ngày:
    14/2/10
    Bài viết:
    69
    Đã được cảm ơn:
    47
    Cảm ơn bạn nhiều nhé,chúc bạn sức khỏe.
     
  15. eragon1322

    eragon1322 Member

    Tham gia ngày:
    5/3/10
    Bài viết:
    29
    Đã được cảm ơn:
    15
    Giới tính:
    Nam
    Nghề nghiệp:
    IT
    Nơi ở:
    Hà Nội
    Xem lại vẫn phê, cảm ơn bạn
     
  16. tayvtn

    tayvtn Member

    Tham gia ngày:
    21/4/09
    Bài viết:
    184
    Đã được cảm ơn:
    8
    Các bác cho E hỏi tí: Captial Maverl chưa có HD các Bác nhỉ. Bác nào có thì cho E xin link với. Thankkk!
     
  17. hungdaita

    hungdaita ☆☆☆ TayTO ☆☆☆

    Tham gia ngày:
    18/3/12
    Bài viết:
    70,968
    Đã được cảm ơn:
    1,798,064
    Giới tính:
    Nam
    Nghề nghiệp:
    Encoder ~ Share more share
    Nơi ở:
    Hà Nội - Việt Nam
  18. hungdaita

    hungdaita ☆☆☆ TayTO ☆☆☆

    Tham gia ngày:
    18/3/12
    Bài viết:
    70,968
    Đã được cảm ơn:
    1,798,064
    Giới tính:
    Nam
    Nghề nghiệp:
    Encoder ~ Share more share
    Nơi ở:
    Hà Nội - Việt Nam
    Avengers: Infinity War 2018 1080p UHD BluRay DDP7.1 HDR x265-NCmt
    {Internal Awesome-HD | Sub Việt}
    Cuộc Chiến Vô Cực | Siêu Bom Tấn | Rating: 8.8
    Robert Downey Jr., Chris Hemsworth, Mark Ruffalo, Scarlett Johansson


    [​IMG]


    [​IMG]



    General
    Unique ID : 66491036669469539718406553632136180375 (0x3205B53604C1A394C40C4B9C4BF73297)
    Complete name : Avengers.Infinity.War.2018.1080p.UHD.BluRay.DDP7.1.HDR.x265-NCmt.mkv
    Format : Matroska
    Format version : Version 4
    File size : 16.2 GiB
    Duration : 2 h 29 min
    Overall bit rate : 15.5 Mb/s
    Encoded date : UTC 2018-08-08 12:18:06
    Writing application : mkvmerge v25.0.0 ('Prog Noir') 64-bit
    Writing library : libebml v1.3.6 + libmatroska v1.4.9

    Video
    ID : 1
    Format : HEVC
    Format/Info : High Efficiency Video Coding
    Format profile : Main [email protected]@High
    HDR format : SMPTE ST 2086, HDR10 compatible
    Codec ID : V_MPEGH/ISO/HEVC
    Duration : 2 h 29 min
    Bit rate : 14.0 Mb/s
    Width : 1 920 pixels
    Height : 804 pixels
    Display aspect ratio : 2.40:1
    Frame rate mode : Constant
    Frame rate : 23.976 (24000/1001) FPS
    Color space : YUV
    Chroma subsampling : 4:2:0 (Type 2)
    Bit depth : 10 bits
    Bits/(Pixel*Frame) : 0.378
    Stream size : 14.6 GiB (90%)
    Writing library : x265 2.8+57-eea92165b035:[Windows][MSVC 1914][64 bit] 10bit
    Encoding settings : cpuid=1111039 / frame-threads=4 / numa-pools=16 / wpp / no-pmode / no-pme / no-psnr / no-ssim / log-level=2 / input-csp=1 / input-res=1920x804 / interlace=0 / total-frames=214872 / level-idc=41 / high-tier=1 / uhd-bd=0 / ref=5 / no-allow-non-conformance / repeat-headers / annexb / aud / hrd / info / hash=0 / no-temporal-layers / no-open-gop / min-keyint=23 / keyint=250 / gop-lookahead=0 / bframes=12 / b-adapt=2 / b-pyramid / bframe-bias=0 / rc-lookahead=60 / lookahead-slices=0 / scenecut=40 / radl=0 / no-intra-refresh / ctu=32 / min-cu-size=8 / no-rect / no-amp / max-tu-size=32 / tu-inter-depth=3 / tu-intra-depth=3 / limit-tu=4 / rdoq-level=2 / dynamic-rd=0.00 / no-ssim-rd / signhide / no-tskip / nr-intra=0 / nr-inter=0 / no-constrained-intra / strong-intra-smoothing / max-merge=4 / limit-refs=1 / limit-modes / me=3 / subme=5 / merange=32 / temporal-mvp / weightp / weightb / no-analyze-src-pics / deblock=-3:-3 / no-sao / no-sao-non-deblock / rd=3 / no-early-skip / no-rskip / no-fast-intra / no-tskip-fast / no-cu-lossless / b-intra / no-splitrd-skip / rdpenalty=0 / psy-rd=1.25 / psy-rdoq=1.00 / no-rd-refine / no-lossless / cbqpoffs=-3 / crqpoffs=-3 / rc=crf / crf=13.5 / qcomp=0.60 / qpstep=4 / stats-write=0 / stats-read=0 / vbv-maxrate=50000 / vbv-bufsize=50000 / vbv-init=0.9 / crf-max=0.0 / crf-min=0.0 / ipratio=1.30 / pbratio=1.20 / aq-mode=3 / aq-strength=1.00 / no-cutree / zone-count=0 / no-strict-cbr / qg-size=8 / no-rc-grain / qpmax=69 / qpmin=0 / no-const-vbv / sar=0 / overscan=0 / videoformat=5 / range=0 / colorprim=9 / transfer=16 / colormatrix=9 / chromaloc=1 / chromaloc-top=2 / chromaloc-bottom=2 / display-window=0 / master-display=G(13250,34500)B(7500,3000)R(34000,16000)WP(15635,16450)L(10000000,1) / max-cll=0,0 / min-luma=0 / max-luma=1023 / log2-max-poc-lsb=8 / vui-timing-info / vui-hrd-info / slices=1 / no-opt-qp-pps / no-opt-ref-list-length-pps / no-multi-pass-opt-rps / scenecut-bias=0.05 / no-opt-cu-delta-qp / no-aq-motion / hdr / hdr-opt / no-dhdr10-opt / no-idr-recovery-sei / analysis-reuse-level=5 / scale-factor=0 / refine-intra=0 / refine-inter=0 / refine-mv=0 / no-limit-sao / ctu-info=0 / no-lowpass-dct / refine-mv-type=0 / copy-pic=1 / max-ausize-factor=1.0 / no-dynamic-refine / no-single-sei
    Language : English
    Default : Yes
    Forced : No
    Color range : Limited
    Color primaries : BT.2020
    Transfer characteristics : PQ
    Matrix coefficients : BT.2020 non-constant
    Mastering display color primaries : Display P3
    Mastering display luminance : min: 0.0001 cd/m2, max: 1000 cd/m2

    Audio #1
    ID : 2
    Format : E-AC-3
    Format/Info : Enhanced AC-3
    Commercial name : Dolby Digital Plus
    Format profile : Blu-ray Disc
    Codec ID : A_EAC3
    Duration : 2 h 29 min
    Bit rate mode : Constant
    Bit rate : 1 280 kb/s
    Channel(s) : 8 channels
    Channel layout : L R C LFE Ls Rs Lb Rb
    Sampling rate : 48.0 kHz
    Frame rate : 31.250 FPS (1536 SPF)
    Compression mode : Lossy
    Stream size : 1.34 GiB (8%)
    Language : English
    Service kind : Complete Main
    Default : Yes
    Forced : No

    Audio #2
    ID : 3
    Format : AC-3
    Format/Info : Audio Coding 3
    Commercial name : Dolby Digital
    Codec ID : A_AC3
    Duration : 2 h 29 min
    Bit rate mode : Constant
    Bit rate : 192 kb/s
    Channel(s) : 2 channels
    Channel layout : L R
    Sampling rate : 48.0 kHz
    Frame rate : 31.250 FPS (1536 SPF)
    Compression mode : Lossy
    Stream size : 205 MiB (1%)
    Title : Commentary with directors Joe and Anthony Russo, and writers Christopher Markus and Stephen McFeely
    Language : English
    Service kind : Complete Main
    Default : No
    Forced : No

    Text #1
    ID : 4
    Format : UTF-8
    Codec ID : S_TEXT/UTF8
    Codec ID/Info : UTF-8 Plain Text
    Duration : 1 s 126 ms
    Bit rate : 134 b/s
    Count of elements : 1
    Stream size : 19.0 Bytes (0%)
    Title : Foreign parts only
    Language : English
    Default : Yes
    Forced : No

    Text #2
    ID : 5
    Format : UTF-8
    Codec ID : S_TEXT/UTF8
    Codec ID/Info : UTF-8 Plain Text
    Duration : 2 h 28 min
    Bit rate : 42 b/s
    Count of elements : 1724
    Stream size : 46.5 KiB (0%)
    Language : English
    Default : No
    Forced : No

    Text #3
    ID : 6
    Format : UTF-8
    Codec ID : S_TEXT/UTF8
    Codec ID/Info : UTF-8 Plain Text
    Duration : 2 h 28 min
    Bit rate : 49 b/s
    Count of elements : 2067
    Stream size : 53.9 KiB (0%)
    Title : SDH
    Language : English
    Default : No
    Forced : No

    Text #4
    ID : 7
    Format : PGS
    Muxing mode : zlib
    Codec ID : S_HDMV/PGS
    Codec ID/Info : Picture based subtitle format used on BDs/HD-DVDs
    Duration : 2 h 28 min
    Bit rate : 15.6 kb/s
    Count of elements : 3152
    Stream size : 16.6 MiB (0%)
    Title : Cantonese
    Language : Chinese
    Default : No
    Forced : No

    Text #5
    ID : 8
    Format : PGS
    Muxing mode : zlib
    Codec ID : S_HDMV/PGS
    Codec ID/Info : Picture based subtitle format used on BDs/HD-DVDs
    Duration : 2 h 28 min
    Bit rate : 18.4 kb/s
    Count of elements : 3150
    Stream size : 19.6 MiB (0%)
    Title : Mandarin Traditional
    Language : Chinese
    Default : No
    Forced : No

    Text #6
    ID : 9
    Format : UTF-8
    Codec ID : S_TEXT/UTF8
    Codec ID/Info : UTF-8 Plain Text
    Duration : 2 h 28 min
    Bit rate : 41 b/s
    Count of elements : 1597
    Stream size : 45.1 KiB (0%)
    Title : Canadian
    Language : French
    Default : No
    Forced : No

    Text #7
    ID : 10
    Format : PGS
    Muxing mode : zlib
    Codec ID : S_HDMV/PGS
    Codec ID/Info : Picture based subtitle format used on BDs/HD-DVDs
    Duration : 2 h 28 min
    Bit rate : 20.1 kb/s
    Count of elements : 3040
    Stream size : 21.4 MiB (0%)
    Language : Japanese
    Default : No
    Forced : No

    Text #8
    ID : 11
    Format : PGS
    Muxing mode : zlib
    Codec ID : S_HDMV/PGS
    Codec ID/Info : Picture based subtitle format used on BDs/HD-DVDs
    Duration : 2 h 28 min
    Bit rate : 12.8 kb/s
    Count of elements : 3150
    Stream size : 13.6 MiB (0%)
    Language : Korean
    Default : No
    Forced : No

    Text #9
    ID : 12
    Format : UTF-8
    Codec ID : S_TEXT/UTF8
    Codec ID/Info : UTF-8 Plain Text
    Duration : 2 h 28 min
    Bit rate : 40 b/s
    Count of elements : 1566
    Stream size : 44.5 KiB (0%)
    Title : Brazilian
    Language : Portuguese
    Default : No
    Forced : No

    Text #10
    ID : 13
    Format : UTF-8
    Codec ID : S_TEXT/UTF8
    Codec ID/Info : UTF-8 Plain Text
    Duration : 2 h 28 min
    Bit rate : 39 b/s
    Count of elements : 1572
    Stream size : 42.5 KiB (0%)
    Title : Latin American
    Language : Spanish
    Default : No
    Forced : No

    Text #11
    ID : 14
    Format : PGS
    Muxing mode : zlib
    Codec ID : S_HDMV/PGS
    Codec ID/Info : Picture based subtitle format used on BDs/HD-DVDs
    Duration : 2 h 28 min
    Bit rate : 15.8 kb/s
    Count of elements : 3154
    Stream size : 16.8 MiB (0%)
    Language : Thai
    Default : No
    Forced : No

    Text #12
    ID : 15
    Format : UTF-8
    Codec ID : S_TEXT/UTF8
    Codec ID/Info : UTF-8 Plain Text
    Duration : 2 h 29 min
    Bit rate : 126 b/s
    Count of elements : 2974
    Stream size : 138 KiB (0%)
    Title : Commentary
    Language : English
    Default : No
    Forced : No

    Text #13
    ID : 16
    Format : UTF-8
    Codec ID : S_TEXT/UTF8
    Codec ID/Info : UTF-8 Plain Text
    Duration : 2 h 29 min
    Bit rate : 136 b/s
    Count of elements : 3019
    Stream size : 149 KiB (0%)
    Title : Commentary - SDH
    Language : English
    Default : No
    Forced : No

    Text #14
    ID : 17
    Format : UTF-8
    Codec ID : S_TEXT/UTF8
    Codec ID/Info : UTF-8 Plain Text
    Duration : 2 h 29 min
    Bit rate : 125 b/s
    Count of elements : 2974
    Stream size : 137 KiB (0%)
    Title : Commentary - Canadian
    Language : French
    Default : No
    Forced : No

    Text #15
    ID : 18
    Format : UTF-8
    Codec ID : S_TEXT/UTF8
    Codec ID/Info : UTF-8 Plain Text
    Duration : 2 h 29 min
    Bit rate : 118 b/s
    Count of elements : 2920
    Stream size : 130 KiB (0%)
    Title : Commentary - Brazilian
    Language : Portuguese
    Default : No
    Forced : No

    Text #16
    ID : 19
    Format : UTF-8
    Codec ID : S_TEXT/UTF8
    Codec ID/Info : UTF-8 Plain Text
    Duration : 2 h 29 min
    Bit rate : 123 b/s
    Count of elements : 2911
    Stream size : 135 KiB (0%)
    Title : Commentary - Latin American
    Language : Spanish
    Default : No
    Forced : No

    Menu
    00:00:00.000 : en:"Thanos is Coming"
    00:11:28.730 : en:Infinity Stones
    00:18:13.884 : en:Fight for the Time Stone
    00:27:23.809 : en:"Who the Hell are You Guys?"
    00:35:48.813 : en:Wanda and Vision
    00:42:23.541 : en:Knowhere
    00:54:12.875 : en:Avengers Assemble
    00:59:36.740 : en:"Take the Fight to Him"
    01:05:07.153 : en:The Soul Stone
    01:10:53.666 : en:Nidavellir
    01:17:06.956 : en:Titan
    01:24:14.758 : en:Vormir
    01:31:08.004 : en:"Wakanda Forever"
    01:42:00.406 : en:Stormbreaker
    01:45:57.810 : en:Titan Confrontation
    01:53:04.069 : en:"A Vision Situation"
    01:58:52.917 : en:The Time Stone
    02:03:58.181 : en:The End Game
    02:11:13.282 : en:Aftermath
    02:17:31.285 : en:End Credits





    Sau chuyến hành trình độc nhất vô nhị không ngừng mở rộng và phát triển vụ trũ điện ảnh Marvel, bộ phim Avengers: Cuộc Chiến Vô Cực sẽ mang đến màn ảnh trận chiến cuối cùng khốc liệt nhất mọi thời đại. Biệt đội Avengers và các đồng minh siêu anh hùng của họ phải chấp nhận hy sinh tất cả để có thể chống lại kẻ thù hùng mạnh Thanos trước tham vọng hủy diệt toàn bộ vũ trụ của hắn ...



    [​IMG]


    Screenshots Comparisons:


    Source / Encode / Replica (Cropped)

    [​IMG] [​IMG] [​IMG] [​IMG] [​IMG] [​IMG] [​IMG] [​IMG] [​IMG] [​IMG] [​IMG] [​IMG] [​IMG] [​IMG] [​IMG] [​IMG] [​IMG] [​IMG] [​IMG] [​IMG] [​IMG] [​IMG] [​IMG] [​IMG] [​IMG] [​IMG] [​IMG] [​IMG] [​IMG] [​IMG]



    Full Screenshots:

    ☆☆☆ Gallery => Click Vào Link Để Xem Ảnh Lớn ☆☆☆

    [​IMG]



    ☆☆☆ Click Vào Link Để Xem Trailer ☆☆☆

    [​IMG]

    One Link :

    [​IMG]

    Nhấn nút Cảm ơn (dưới chân bài) để thấy link!


    [​IMG]

    Nhấn nút Cảm ơn (dưới chân bài) để thấy link!



    [​IMG]


    [​IMG]

    Phụ Đề Việt: {Đã Có}

    https://www.fshare.vn/file/68GAQKCRKAH7 Cho BluRay
    https://www.fshare.vn/file/H8F41I776Y38 Cho WEB-DL
    Subscene - Subtitles for this Movie


    Audio English 5.1 & 7.1-HDT : {Đã Có}

    Audio English DTS 5.1-HDT
    Audio English DTS-HD MA 7.1-HDT
    Audio English TrueHD Atmos 7.1-HDT


    [​IMG]
     
  19. hoangvunguyen249

    hoangvunguyen249 New Member

    Tham gia ngày:
    24/7/21
    Bài viết:
    1
    Đã được cảm ơn:
    1
    Giới tính:
    Nam
    cám ơn bạn nhiều
     
    marcus2425 cảm ơn bài này.

Chia sẻ trang này