[Fshare] The Wire 2002 Complete Series BluRay REMUX 1080p AVC DTS-HDMA 5.1-MrO ~ Đường Dây Tội Phạm (Vietsub)

Thảo luận trong 'Phim bộ - Series' bắt đầu bởi tremocoivo, 5/9/20.

  1. tremocoivo

    tremocoivo Well-Known Member

    Tham gia ngày:
    25/2/10
    Bài viết:
    1,576
    Đã được cảm ơn:
    52,141
    Giới tính:
    Nam

    Đường Dây Tội Phạm (2002) - Trọn Bộ 5 Phần
    The Wire 2002 Complete Series BluRay REMUX 1080p AVC DTS-HDMA 5.1-MrO {Sub Việt Mux Sẵn}

    [​IMG] [​IMG]
    https://www.imdb.com/title/tt0306414

    Tác phẩm này đã được tạp chí điện ảnh lớn nhất thế giới Empire đưa vào danh sách bình chọn Top 50 phim truyền hình hay nhất mọi thời đại và từng là TV series ăn khách nhất của đài HBO. Mỗi mùa phim lại tập trung vào một khía cạnh trong thành phố Baltimore như buôn bán ma túy bất hợp pháp, hệ thống cảng biển, thành phố, bộ máy quan liêu, hệ thống trường học và các phương tiện truyền thông đại chúng.


    Mã:
    General
    Unique ID                   : 45065441708673870480167857241419785909 (0x21E749D23F719D45372BC99A200DA6B5)
    Complete name               : The.Wire.S01E01.The.Target.BluRay.Remux.1080p.AVC.DTS-HD.MA.5.1-MrO.mkv
    Format                      : Matroska
    Format version              : Version 4
    File size                   : 11.1 GiB
    Duration                    : 1 h 2 min
    Overall bit rate mode       : Variable
    Overall bit rate            : 25.5 Mb/s
    
    
    Encoded date                : UTC 2020-09-03 18:03:00
    Writing application         : mkvmerge v49.0.0 ('Sick Of Losing Soulmates') 64-bit
    Writing library             : libebml v1.4.0 + libmatroska v1.6.1
    Video
    ID                          : 2
    Format                      : AVC
    Format/Info                 : Advanced Video Codec
    Format profile              : [email protected]
    Format settings             : CABAC / 4 Ref Frames
    Format settings, CABAC      : Yes
    Format settings, Reference  : 4 frames
    Codec ID                    : V_MPEG4/ISO/AVC
    Duration                    : 1 h 2 min
    Bit rate mode               : Variable
    Bit rate                    : 21.9 Mb/s
    Maximum bit rate            : 39.0 Mb/s
    Width                       : 1 920 pixels
    Height                      : 1 080 pixels
    Display aspect ratio        : 16:9
    Frame rate mode             : Constant
    Frame rate                  : 23.976 (24000/1001) FPS
    Color space                 : YUV
    Chroma subsampling          : 4:2:0
    Bit depth                   : 8 bits
    Scan type                   : Progressive
    Bits/(Pixel*Frame)          : 0.440
    Stream size                 : 9.50 GiB (86%)
    Title                       : MPEG-4 AVC Video / 21998 kbps / 1080p / 23,976 fps / 16:9 / High Profile 4.1
    Default                     : Yes
    Forced                      : No
    Audio
    ID                          : 1
    Format                      : DTS XLL
    Format/Info                 : Digital Theater Systems
    Commercial name             : DTS-HD Master Audio
    Codec ID                    : A_DTS
    Duration                    : 1 h 2 min
    Bit rate mode               : Variable
    Bit rate                    : 3 442 kb/s
    Channel(s)                  : 6 channels
    Channel layout              : C L R Ls Rs LFE
    Sampling rate               : 48.0 kHz
    Frame rate                  : 93.750 FPS (512 SPF)
    Bit depth                   : 24 bits
    Compression mode            : Lossless
    Stream size                 : 1.49 GiB (14%)
    Title                       : DTS-HD Master Audio / English / 5.1 / 48 kHz / 3442 kbps / 24-bit
    Language                    : English
    Default                     : Yes
    Forced                      : No
    Text #1
    ID                          : 3
    Format                      : PGS
    Muxing mode                 : zlib
    Codec ID                    : S_HDMV/PGS
    Codec ID/Info               : Picture based subtitle format used on BDs/HD-DVDs
    Duration                    : 1 h 0 min
    Bit rate                    : 48.1 kb/s
    Count of elements           : 1744
    Stream size                 : 20.7 MiB (0%)
    Language                    : English
    Default                     : No
    Forced                      : No
    Text #2
    ID                          : 4
    Format                      : PGS
    Muxing mode                 : zlib
    Codec ID                    : S_HDMV/PGS
    Codec ID/Info               : Picture based subtitle format used on BDs/HD-DVDs
    Duration                    : 59 min 52 s
    Bit rate                    : 44.6 kb/s
    Count of elements           : 1644
    Stream size                 : 19.1 MiB (0%)
    Language                    : French
    Default                     : No
    Forced                      : No
    Text #3
    ID                          : 5
    Format                      : PGS
    Muxing mode                 : zlib
    Codec ID                    : S_HDMV/PGS
    Codec ID/Info               : Picture based subtitle format used on BDs/HD-DVDs
    Duration                    : 59 min 51 s
    Bit rate                    : 45.6 kb/s
    Count of elements           : 1786
    Stream size                 : 19.5 MiB (0%)
    Language                    : Spanish
    Default                     : No
    Forced                      : No
    Text #4
    ID                          : 6
    Format                      : PGS
    Muxing mode                 : zlib
    Codec ID                    : S_HDMV/PGS
    Codec ID/Info               : Picture based subtitle format used on BDs/HD-DVDs
    Duration                    : 59 min 52 s
    Bit rate                    : 52.2 kb/s
    Count of elements           : 1720
    Stream size                 : 22.4 MiB (0%)
    Language                    : German
    Default                     : No
    Forced                      : No
    Text #5
    ID                          : 7
    Format                      : PGS
    Muxing mode                 : zlib
    Codec ID                    : S_HDMV/PGS
    Codec ID/Info               : Picture based subtitle format used on BDs/HD-DVDs
    Duration                    : 59 min 52 s
    Bit rate                    : 44.5 kb/s
    Count of elements           : 1616
    Stream size                 : 19.0 MiB (0%)
    Language                    : Dutch
    Default                     : No
    Forced                      : No
    Text #6
    ID                          : 8
    Format                      : PGS
    Muxing mode                 : zlib
    Codec ID                    : S_HDMV/PGS
    Codec ID/Info               : Picture based subtitle format used on BDs/HD-DVDs
    Duration                    : 59 min 52 s
    Bit rate                    : 43.4 kb/s
    Count of elements           : 1638
    Stream size                 : 18.6 MiB (0%)
    Language                    : Danish
    Default                     : No
    Forced                      : No
    Text #7
    ID                          : 9
    Format                      : PGS
    Muxing mode                 : zlib
    Codec ID                    : S_HDMV/PGS
    Codec ID/Info               : Picture based subtitle format used on BDs/HD-DVDs
    Duration                    : 59 min 52 s
    Bit rate                    : 41.8 kb/s
    Count of elements           : 1636
    Stream size                 : 17.9 MiB (0%)
    Language                    : Finnish
    Default                     : No
    Forced                      : No
    Text #8
    ID                          : 10
    Format                      : PGS
    Muxing mode                 : zlib
    Codec ID                    : S_HDMV/PGS
    Codec ID/Info               : Picture based subtitle format used on BDs/HD-DVDs
    Duration                    : 59 min 52 s
    Bit rate                    : 42.3 kb/s
    Count of elements           : 1638
    Stream size                 : 18.1 MiB (0%)
    Language                    : Norwegian
    Default                     : No
    Forced                      : No
    Text #9
    ID                          : 11
    Format                      : PGS
    Muxing mode                 : zlib
    Codec ID                    : S_HDMV/PGS
    Codec ID/Info               : Picture based subtitle format used on BDs/HD-DVDs
    Duration                    : 59 min 52 s
    Bit rate                    : 42.7 kb/s
    Count of elements           : 1640
    Stream size                 : 18.3 MiB (0%)
    Language                    : Swedish
    Default                     : No
    Forced                      : No
    Text #10
    ID                          : 12
    Format                      : PGS
    Muxing mode                 : zlib
    Codec ID                    : S_HDMV/PGS
    Codec ID/Info               : Picture based subtitle format used on BDs/HD-DVDs
    Duration                    : 1 h 0 min
    Bit rate                    : 46.5 kb/s
    Count of elements           : 1766
    Stream size                 : 20.1 MiB (0%)
    Language                    : Vietnamese
    Default                     : Yes
    Forced                      : No
    Menu
    00:00:00.000                : en:Chapter 01
    00:04:27.934                : en:Chapter 02
    00:12:45.807                : en:Chapter 03
    00:21:06.307                : en:Chapter 04
    00:30:24.281                : en:Chapter 05
    00:39:42.380                : en:Chapter 06
    00:48:03.798                : en:Chapter 07
    00:55:16.647                : en:Chapter 08
    01:00:58.071                : en:Chapter 09
    
    SCREENSHOT
    [​IMG]
    DOWNLOAD
    Đã hoàn thành: 05 Season / 05 Season.
    Chúc các bạn xem phim vui vẻ.

     
    Chỉnh sửa cuối: 24/3/21
  2. Nguyễn Đào Hiểu Ân

    Nguyễn Đào Hiểu Ân Active Member

    Tham gia ngày:
    21/11/18
    Bài viết:
    68
    Đã được cảm ơn:
    31
    Giới tính:
    Nam
    Không biết nói gì hơn, bộ này quá đỉnh rồi, tks bác đã chia sẻ
     
    huynhnam and mrdam2013 like this.
  3. Vooc2707

    Vooc2707 Active Member

    Tham gia ngày:
    6/4/20
    Bài viết:
    371
    Đã được cảm ơn:
    216
    Giới tính:
    Nam
    Hay quá chủ rạp ơi. Đợi bộ này lâu rồi mà nay có sub mux sẵn. Cảm ơn nhiều!
     
    huynhnam cảm ơn bài này.
  4. tiensh98

    tiensh98 Well-Known Member

    Tham gia ngày:
    22/10/17
    Bài viết:
    1,020
    Đã được cảm ơn:
    429
    Giới tính:
    Nam
    toàn series khủng :)))
     
    huynhnam cảm ơn bài này.
  5. phi_7932

    phi_7932 Active Member

    Tham gia ngày:
    18/11/15
    Bài viết:
    100
    Đã được cảm ơn:
    47
    huynhnam cảm ơn bài này.
  6. teptom93

    teptom93 Member

    Tham gia ngày:
    25/11/17
    Bài viết:
    31
    Đã được cảm ơn:
    5
    Giới tính:
    Nữ
    phim hay quá
     
    huynhnam cảm ơn bài này.
  7. tremocoivo

    tremocoivo Well-Known Member

    Tham gia ngày:
    25/2/10
    Bài viết:
    1,576
    Đã được cảm ơn:
    52,141
    Giới tính:
    Nam
    UPDATE SEASON 02
     
  8. hoadainhan70

    hoadainhan70 Well-Known Member

    Tham gia ngày:
    11/12/09
    Bài viết:
    2,526
    Đã được cảm ơn:
    1,689
    cám ơn bác chủ 1 2 SS đã tải , đợi tiếp bác ạ ! Có điều HDD đã dầy mà files của bác lớn quá bác ạ
     
    huynhnam and tremocoivo like this.
  9. tremocoivo

    tremocoivo Well-Known Member

    Tham gia ngày:
    25/2/10
    Bài viết:
    1,576
    Đã được cảm ơn:
    52,141
    Giới tính:
    Nam
    Mục đích của mình sưu tầm những bộ kinh điển có đầy đủ sub Việt và chất lượng cao nhất nên mới chọn bản REMUX để làm. Download hết Series này chắc cũng tốn gần 1 cái ổ cứng 1TB.
     
  10. LinhVuitton

    LinhVuitton Active Member

    Tham gia ngày:
    3/3/15
    Bài viết:
    113
    Đã được cảm ơn:
    57
    Giới tính:
    Nam
    sắp có season 3 chưa bác
     
    huynhnam cảm ơn bài này.
  11. tfm

    tfm Well-Known Member

    Tham gia ngày:
    27/12/10
    Bài viết:
    1,274
    Đã được cảm ơn:
    1,469
    Giới tính:
    Nam
    thớt up dùm mình bộ sub bluray của bộ này nha, mình kiếm bộ bluary nhẹ hơn down về coi, bộ này khủng quá hdd hết trơn :(
     
  12. tremocoivo

    tremocoivo Well-Known Member

    Tham gia ngày:
    25/2/10
    Bài viết:
    1,576
    Đã được cảm ơn:
    52,141
    Giới tính:
    Nam
    Giờ họ coi online hết rồi bác ơi. Mình làm bộ này mục đích sưu tầm bản chất lượng nhất cho những phim kinh điển rating khủng thôi.
     
    seoulxxxx and tfm like this.
  13. tfm

    tfm Well-Known Member

    Tham gia ngày:
    27/12/10
    Bài viết:
    1,274
    Đã được cảm ơn:
    1,469
    Giới tính:
    Nam
    Xin bộ sub thôi thớt, up hộ mình nha. lay tren subscene bị lệch tý xem hơi khó chiu :D
     
  14. Vooc2707

    Vooc2707 Active Member

    Tham gia ngày:
    6/4/20
    Bài viết:
    371
    Đã được cảm ơn:
    216
    Giới tính:
    Nam
    Thấy @tremocoivo đang lên S03, mong bác theo hết bộ này.
     
  15. choma

    choma New Member

    Tham gia ngày:
    20/1/18
    Bài viết:
    2
    Đã được cảm ơn:
    1
    xin cảm ơn nhiều , mong theo hết bộ này
     
  16. tremocoivo

    tremocoivo Well-Known Member

    Tham gia ngày:
    25/2/10
    Bài viết:
    1,576
    Đã được cảm ơn:
    52,141
    Giới tính:
    Nam
    Chắc chắn mình sẽ hoàn thành hết bộ này. Ban ngày mình bận quá nên chỉ tranh thủ tí buổi tối để làm sub thôi nên có thể hơi lâu chút.
     
    seoulxxxx, thuytinhtim and Vooc2707 like this.
  17. down

    down New Member

    Tham gia ngày:
    19/2/10
    Bài viết:
    14
    Đã được cảm ơn:
    2
    Giới tính:
    Nam
    Nơi ở:
    HN.City.of.Bastard
    Nghe nói bộ này hay mà nhìn dung lượng ngại quá thớt ạ :D
     
  18. langduking

    langduking Member

    Tham gia ngày:
    22/12/08
    Bài viết:
    70
    Đã được cảm ơn:
    37
    Cảm ơn Bác đã upload, xin hỏi lộ trình ra Season 04 và 05 ạ?
     
  19. thuytinhtim

    thuytinhtim Well-Known Member

    Tham gia ngày:
    25/7/11
    Bài viết:
    756
    Đã được cảm ơn:
    894
    Đã backup xong SS02 :)), hóng tiếp .
     
  20. tremocoivo

    tremocoivo Well-Known Member

    Tham gia ngày:
    25/2/10
    Bài viết:
    1,576
    Đã được cảm ơn:
    52,141
    Giới tính:
    Nam
    Nếu siêng thì mỗi ngày mình làm xong được 1 tập. Mỗi SS 13 tập thì hết SS5 cũng mất 1 tháng.
    Season 03 mình cũng up gần hết rồi đấy bác.
     

Chia sẻ trang này