[Fshare] The Secret Life of Pets (2016) 3D BDRip H-SBS 1080p H.264 TrueHD 7.1 Atmos (Eng) AC3 2.0 (Vie)

Thảo luận trong '3D' bắt đầu bởi tammoto, 11/11/16.

  1. tammoto

    tammoto Well-Known Member

    Tham gia ngày:
    5/9/09
    Bài viết:
    2,717
    Đã được cảm ơn:
    28,676
    The Secret Life of Pets (2016) 3D

    [​IMG]

    Video
    ID : 1
    Format : AVC
    Format/Info : Advanced Video Codec

    Format profile : [email protected]

    MultiView_Count : 2
    MultiView_Layout : Side by Side (left eye first)
    Format settings, CABAC : Yes
    Format settings, ReFrames : 4 frames
    Codec ID : V_MPEG4/ISO/AVC
    Duration : 1 h 26 min
    Bit rate : 10.8 Mb/s
    Width : 1 920 pixels
    Height : 1 080 pixels
    Display aspect ratio : 16:9
    Frame rate mode : Constant
    Frame rate : 23.976 (24000/1001) FPS
    Color space : YUV
    Chroma subsampling : 4:2:0
    Bit depth : 8 bits
    Scan type : Progressive
    Bits/(Pixel*Frame) : 0.217
    Stream size : 6.52 GiB (58%)
    Title : 3D Half-SBS (x264 [email protected] 2-pass 10800 Kbps preset medium, tune animation)
    Writing library : x264 core 148 r2705 3f5ed56
    Encoding settings : cabac=1 / ref=4 / deblock=1:1:1 / analyse=0x3:0x113 / me=hex / subme=7 / psy=1 / psy_rd=0.40:0.00 / mixed_ref=1 / me_range=16 / chroma_me=1 / trellis=1 / 8x8dct=1 / cqm=0 / deadzone=21,11 / fast_pskip=1 / chroma_qp_offset=-2 / threads=6 / lookahead_threads=1 / sliced_threads=0 / nr=0 / decimate=1 / interlaced=0 / bluray_compat=0 / constrained_intra=0 / bframes=5 / b_pyramid=2 / b_adapt=1 / b_bias=0 / direct=1 / weightb=1 / open_gop=0 / weightp=2 / keyint=250 / keyint_min=23 / scenecut=40 / intra_refresh=0 / rc_lookahead=40 / rc=2pass / mbtree=1 / bitrate=10800 / ratetol=1.0 / qcomp=0.60 / qpmin=0 / qpmax=69 / qpstep=4 / cplxblur=20.0 / qblur=0.5 / vbv_maxrate=62500 / vbv_bufsize=78125 / nal_hrd=none / filler=0 / frame-packing=3 / ip_ratio=1.40 / aq=1:0.60
    Language : English
    Default : Yes
    Forced : No
    Color range : Limited
    Matrix coefficients : BT.709

    Audio #1
    ID : 2
    Format : Atmos / TrueHD
    Codec ID : A_TRUEHD
    Duration : 1 h 26 min
    Bit rate mode : Variable
    Bit rate : 4 764 kb/s
    Maximum bit rate : 7 371 kb/s
    Channel(s) : Object Based / 8 channels
    Channel positions : Object Based / Front: L C R, Side: L R, Back: L R, LFE
    Sampling rate : / 48.0 kHz
    Frame rate : 1 200.000 FPS (40 spf)
    Compression mode : Lossless
    Stream size : 2.88 GiB (26%)
    Title : English (TrueHD 7.1 48KHz)
    Language : English
    Default : Yes
    Forced : No

    Audio #2
    ID : 4
    Format : AC-3
    Format/Info : Audio Coding 3
    Mode extension : CM (complete main)
    Format settings, Endianness : Big
    Codec ID : A_AC3
    Duration : 1 h 26 min
    Bit rate mode : Constant
    Bit rate : 384 kb/s
    Channel(s) : 2 channels
    Channel positions : Front: L R
    Sampling rate : 48.0 kHz
    Frame rate : 31.250 FPS (1536 spf)
    Compression mode : Lossy
    Stream size : 237 MiB (2%)
    Language : Vietnamese
    Default : No
    Forced : No

    Audio #3
    ID : 5
    Format : AC-3
    Format/Info : Audio Coding 3
    Mode extension : CM (complete main)
    Format settings, Endianness : Big
    Codec ID : A_AC3
    Duration : 1 h 26 min
    Bit rate mode : Constant
    Bit rate : 640 kb/s
    Channel(s) : 6 channels
    Channel positions : Front: L C R, Side: L R, LFE
    Sampling rate : 48.0 kHz
    Frame rate : 31.250 FPS (1536 spf)
    Compression mode : Lossy
    Stream size : 396 MiB (3%)
    Language : English
    Default : No
    Forced : No

    Audio #4
    ID : 6
    Format : DTS
    Format/Info : Digital Theater Systems
    Mode : 16
    Format settings, Endianness : Big
    Codec ID : A_DTS
    Duration : 1 h 26 min
    Bit rate mode : Constant
    Bit rate : 1 920 kb/s
    Channel(s) : 6 channels
    Channel positions : Front: L C R, Side: L R, LFE
    Sampling rate : 48.0 kHz
    Frame rate : 93.750 FPS (512 spf)
    Bit depth : 16 bits
    Compression mode : Lossy
    Stream size : 1.16 GiB (10%)
    Language : English
    Default : No
    Forced : No

    Text #1
    ID : 3
    Format : PGS
    Muxing mode : zlib
    Codec ID : S_HDMV/PGS
    Codec ID/Info : Picture based subtitle format used on BDs/HD-DVDs
    Duration : 1 h 26 min
    Bit rate : 24.8 kb/s
    Count of elements : 3378
    Stream size : 15.2 MiB (0%)
    Title : English 3D (BD SUP)
    Language : English
    Default : No
    Forced : No

    Text #2
    ID : 7
    Format : UTF-8
    Codec ID : S_TEXT/UTF8
    Codec ID/Info : UTF-8 Plain Text
    Duration : 1 h 25 min
    Bit rate : 71 b/s
    Count of elements : 1224
    Stream size : 44.9 KiB (0%)
    Language : Vietnamese
    Default : Yes
    Forced : No

    Nội dung:
    "The Secret Life Of Pets, đúng như tên gọi, sẽ đưa người xem vào thế giới nghịch ngợm vui nhộn của lũ thú cưng. Nhất là khi chủ vắng nhà. Nhân vật chính là chú chó Max, cuộc đời chú đảo lộn hoàn toàn sau khi người chủ mang về con chó lai nhếch nhác tên Duke. Nhưng cả hai phải dẹp bỏ mâu thuẫn để cùng chống lại đội quân thú hoang dưới quyền một con thỏ trắng, vốn mang hận thù với các con thú cưng được yêu thương."

    Phim rip từ bản Blu-ray 3D ISO "The.Secret.Life.of.Pets.2016.1080p.3D.BluRay.AVC.TrueHD.7.1.Atmos-FGT". Thanks.
    Audio Anh: Atmos / TrueHD 7.1 + DTS 5.1 + AC3 5.1
    Audio Việt lồng tiếng thu rạp chất lượng hơi kém.
    Sub Anh 3D và sub Việt 2D đã mux trong phim.


    [​IMG]

    Download (11.23GB):
    https://www.fshare.vn/file/8T62LHCZO6K1

    (Bản Half-TAB sẽ được cập nhật trong link folder ở chữ ký)
     
    Chỉnh sửa cuối: 25/7/19
  2. bigdog

    bigdog Well-Known Member

    Tham gia ngày:
    10/12/10
    Bài viết:
    1,011
    Đã được cảm ơn:
    258
    bản HTAB bị sao mà em không copy vào ổ cứng được bác chủ ơi, copy dc 70% là báo lỗi..
     
  3. tammoto

    tammoto Well-Known Member

    Tham gia ngày:
    5/9/09
    Bài viết:
    2,717
    Đã được cảm ơn:
    28,676
    Tôi download phim đã up về kiểm tra thì không bị gì. Có khi IDM ghép file bị lỗi. Bạn thử down lại xem sao.
     
  4. bigdog

    bigdog Well-Known Member

    Tham gia ngày:
    10/12/10
    Bài viết:
    1,011
    Đã được cảm ơn:
    258
    bác cho em xin bản 3D iso nhé
     
  5. tammoto

    tammoto Well-Known Member

    Tham gia ngày:
    5/9/09
    Bài viết:
    2,717
    Đã được cảm ơn:
    28,676
    Bạn chịu khó theo dõi.
     
    bigdog cảm ơn bài này.
  6. tammoto

    tammoto Well-Known Member

    Tham gia ngày:
    5/9/09
    Bài viết:
    2,717
    Đã được cảm ơn:
    28,676
    Đã đăng bản ISO 3D trong thread 3D tammoto.
     
    bigdog cảm ơn bài này.
  7. Lanuis

    Lanuis New Member

    Tham gia ngày:
    8/6/19
    Bài viết:
    5
    Đã được cảm ơn:
    0
    Giới tính:
    Nam
    Bác còn bản này không ạ? up lại giúp em với, Link trên die mất rồi. Cảm ơn bác nhiều.
     
  8. tammoto

    tammoto Well-Known Member

    Tham gia ngày:
    5/9/09
    Bài viết:
    2,717
    Đã được cảm ơn:
    28,676
    Để tôi tìm lại.
     
  9. tammoto

    tammoto Well-Known Member

    Tham gia ngày:
    5/9/09
    Bài viết:
    2,717
    Đã được cảm ơn:
    28,676
    Đã reup và fix link H-SBS. Anh em download sớm. Tôi sẽ xoá link sau 7 ngày.
     
    Lanuis cảm ơn bài này.
  10. Lanuis

    Lanuis New Member

    Tham gia ngày:
    8/6/19
    Bài viết:
    5
    Đã được cảm ơn:
    0
    Giới tính:
    Nam
    Cảm ơn bác, hôm nay em mới vào, em đang down rồi :D
     

Chia sẻ trang này