[Fshare] The Haunting Of Hill House S01 Extended 1080p BluRay REMUX AVC TrueHD 5.1-EPSiLON ~ Vietsub

Thảo luận trong 'Phim bộ - Series' bắt đầu bởi tremocoivo, 24/9/20.

  1. tremocoivo

    tremocoivo Well-Known Member

    Tham gia ngày:
    25/2/10
    Bài viết:
    1,592
    Đã được cảm ơn:
    52,507
    Giới tính:
    Nam

    Chuyện Ma Ám Ở Căn Nhà Họ Hill (2018)
    The Haunting Of Hill House S01 Extended 1080p BluRay REMUX AVC TrueHD 5.1-EPSiLON {Sub Việt Mux Sẵn}

    [​IMG]
    https://www.imdb.com/title/tt6763664/

    Câu chuyện trong The Haunting of Hill House xoay quanh đại gia đình nhà Crain gồm cặp vợ chồng Hugh (Timothy Hutton) và Olivia (Carla Gugino) dọn vào căn biệt thự Hill House để khởi đầu một cuộc sống mới cùng 5 đứa con, trong đó có 3 bé gái là Shirley, Theodora, Nell và 2 bé trai là Steven và Luke. Những tưởng sẽ có cuộc sống êm đềm hạnh phúc, nhưng rồi những bi kịch ập đến với gia đình Crain, ngôi biệt thự bắt đầu tràn ngập những hiện tượng siêu nhiên, ma quỷ kì bí, dẫn đến việc Hugh phải bỏ lại vợ mình để chạy trốn cùng các con.


    Mã:
    General
    Complete name               : The.Haunting.S01E01.Steven.Sees.a.Ghost.Extended.1080p.BluRay.REMUX.AVC.TrueHD.5.1-EPSiLON.mkv
    Format                      : Matroska
    Format version              : Version 4
    File size                   : 12.0 GiB
    Duration                    : 1 h 4 min
    Overall bit rate mode       : Variable
    Overall bit rate            : 26.5 Mb/s
    Movie name                  : The Haunting - S01E01 - Steven Sees a Ghost
    
    
    Track name/Position         : 1
    Track name/Total            : 10
    Encoded date                : UTC 2020-09-24 04:45:22
    Writing application         : mkvmerge v49.0.0 ('Sick Of Losing Soulmates') 64-bit
    Writing library             : libebml v1.4.0 + libmatroska v1.6.1
    IMDB                        : tt7023382
    TMDB                        : tv/72844
    TVDB                        : 345246
    Video
    ID                          : 2
    Format                      : AVC
    Format/Info                 : Advanced Video Codec
    Format profile              : [email protected]
    Format settings             : CABAC / 4 Ref Frames
    Format settings, CABAC      : Yes
    Format settings, Reference  : 4 frames
    Codec ID                    : V_MPEG4/ISO/AVC
    Duration                    : 1 h 4 min
    Bit rate mode               : Variable
    Bit rate                    : 23.9 Mb/s
    Maximum bit rate            : 34.0 Mb/s
    Width                       : 1 920 pixels
    Height                      : 1 080 pixels
    Display aspect ratio        : 16:9
    Frame rate mode             : Constant
    Frame rate                  : 23.976 (24000/1001) FPS
    Color space                 : YUV
    Chroma subsampling          : 4:2:0
    Bit depth                   : 8 bits
    Scan type                   : Progressive
    Bits/(Pixel*Frame)          : 0.480
    Stream size                 : 10.8 GiB (90%)
    Title                       : MPEG-4 AVC Video / 24828 kbps / 1080p / 23.976 fps / 16:9 / High Profile 4.1
    Language                    : English
    Default                     : Yes
    Forced                      : No
    Audio #1
    ID                          : 3
    Format                      : MLP FBA
    Format/Info                 : Meridian Lossless Packing FBA
    Commercial name             : Dolby TrueHD
    Codec ID                    : A_TRUEHD
    Duration                    : 1 h 4 min
    Bit rate mode               : Variable
    Bit rate                    : 1 646 kb/s
    Maximum bit rate            : 1 776 kb/s
    Channel(s)                  : 6 channels
    Channel layout              : L R C LFE Ls Rs
    Sampling rate               : 48.0 kHz
    Frame rate                  : 1 200.000 FPS (40 SPF)
    Compression mode            : Lossless
    Stream size                 : 765 MiB (6%)
    Title                       : Dolby TrueHD Audio / 5.1 / 48 kHz / 1646 kbps / 16-bit
    Language                    : English
    Default                     : Yes
    Forced                      : No
    Audio #2
    ID                          : 4
    Format                      : AC-3
    Format/Info                 : Audio Coding 3
    Commercial name             : Dolby Digital
    Codec ID                    : A_AC3
    Duration                    : 1 h 4 min
    Bit rate mode               : Constant
    Bit rate                    : 640 kb/s
    Channel(s)                  : 6 channels
    Channel layout              : L R C LFE Ls Rs
    Sampling rate               : 48.0 kHz
    Frame rate                  : 31.250 FPS (1536 SPF)
    Compression mode            : Lossy
    Stream size                 : 297 MiB (2%)
    Title                       : Compatibility Track / Dolby Digital Audio / 5.1 / 48 kHz / 640 kbps
    Language                    : English
    Service kind                : Complete Main
    Default                     : No
    Forced                      : No
    Audio #3
    ID                          : 5
    Format                      : AC-3
    Format/Info                 : Audio Coding 3
    Commercial name             : Dolby Digital
    Codec ID                    : A_AC3
    Duration                    : 1 h 4 min
    Bit rate mode               : Constant
    Bit rate                    : 192 kb/s
    Channel(s)                  : 2 channels
    Channel layout              : L R
    Sampling rate               : 48.0 kHz
    Frame rate                  : 31.250 FPS (1536 SPF)
    Compression mode            : Lossy
    Stream size                 : 89.2 MiB (1%)
    Title                       : Commentary by director Mike Flanagan
    Language                    : English
    Service kind                : Complete Main
    Default                     : No
    Forced                      : No
    Text #1
    ID                          : 1
    Format                      : ASS
    Codec ID                    : S_TEXT/ASS
    Codec ID/Info               : Advanced Sub Station Alpha
    Duration                    : 1 h 3 min
    Bit rate                    : 108 b/s
    Count of elements           : 865
    Compression mode            : Lossless
    Stream size                 : 50.5 KiB (0%)
    Language                    : Vietnamese
    Default                     : Yes
    Forced                      : No
    Text #2
    ID                          : 6
    Format                      : PGS
    Muxing mode                 : zlib
    Codec ID                    : S_HDMV/PGS
    Codec ID/Info               : Picture based subtitle format used on BDs/HD-DVDs
    Duration                    : 1 h 3 min
    Bit rate                    : 40.6 kb/s
    Count of elements           : 2004
    Stream size                 : 18.4 MiB (0%)
    Language                    : English
    Default                     : No
    Forced                      : No
    Text #3
    ID                          : 7
    Format                      : PGS
    Muxing mode                 : zlib
    Codec ID                    : S_HDMV/PGS
    Codec ID/Info               : Picture based subtitle format used on BDs/HD-DVDs
    Duration                    : 1 h 3 min
    Bit rate                    : 34.0 kb/s
    Count of elements           : 1690
    Stream size                 : 15.4 MiB (0%)
    Title                       : SDH
    Language                    : English
    Default                     : No
    Forced                      : No
    Text #4
    ID                          : 8
    Format                      : PGS
    Muxing mode                 : zlib
    Codec ID                    : S_HDMV/PGS
    Codec ID/Info               : Picture based subtitle format used on BDs/HD-DVDs
    Duration                    : 1 h 3 min
    Bit rate                    : 63.4 kb/s
    Count of elements           : 2146
    Stream size                 : 28.9 MiB (0%)
    Title                       : Commentary by director Mike Flanagan
    Language                    : English
    Default                     : No
    Forced                      : No
    Menu
    00:00:00.000                : en:Chapter 1
    00:10:00.683                : en:Chapter 2
    00:21:21.447                : en:Chapter 3
    00:32:21.148                : en:Chapter 4
    00:41:06.214                : en:Chapter 5
    00:52:14.798                : en:Chapter 6
    01:03:45.989                : en:Chapter 7
    

    SCREENSHOT
    [​IMG]
    DOWNLOAD
    The Haunting of Bly Manor 1080p NF WEB-DL DD+ 5.1 x264 - Chuyện Ma Ám Ở Trang Viên Bly

    Sub gốc : PHUDEVIET.ORG. Sync time khớp bản Extended. Bổ sung những đoạn bị thiếu của E01, E05, E10 từ sub eng ( không dịch ). Thank [email protected] đã sync bộ sub này.
    Link sub: https://subscene.com/subtitles/the-haunting-of-hill-house-first-season/vietnamese/2120501
     
    Chỉnh sửa cuối: 31/3/21
  2. upmitom

    upmitom Well-Known Member

    Tham gia ngày:
    23/11/10
    Bài viết:
    1,084
    Đã được cảm ơn:
    992
    Nghề nghiệp:
    ở nhà
    Nơi ở:
    Việt Nam
    e đánh dấu tks bác , hàng quá chất ^^
     
    dovanhieubka cảm ơn bài này.
  3. xuanhuy5889

    xuanhuy5889 Active Member

    Tham gia ngày:
    28/4/10
    Bài viết:
    217
    Đã được cảm ơn:
    117
    Tập 08 mình down k được b ơi
     
  4. tremocoivo

    tremocoivo Well-Known Member

    Tham gia ngày:
    25/2/10
    Bài viết:
    1,592
    Đã được cảm ơn:
    52,507
    Giới tính:
    Nam
    Có thể do server Fshare đang lỗi file đó, bạn thử vào lúc khác xem sao nhé. Nếu k được mình sẽ reup file đó.
     
  5. xuanhuy5889

    xuanhuy5889 Active Member

    Tham gia ngày:
    28/4/10
    Bài viết:
    217
    Đã được cảm ơn:
    117
    Sang nay mình vô lại để tải vẫn chưa đc b ơi ...
     
  6. bigdog

    bigdog Well-Known Member

    Tham gia ngày:
    10/12/10
    Bài viết:
    1,011
    Đã được cảm ơn:
    258
    chính xác là tập 8 không down được..
     
  7. tremocoivo

    tremocoivo Well-Known Member

    Tham gia ngày:
    25/2/10
    Bài viết:
    1,592
    Đã được cảm ơn:
    52,507
    Giới tính:
    Nam
    Đã REUP lại tập 8 nha.
     
    pipipo12 cảm ơn bài này.
  8. vipv9

    vipv9 New Member

    Tham gia ngày:
    31/12/14
    Bài viết:
    24
    Đã được cảm ơn:
    17
    link die bạn gì ơi.
     
  9. thanhfuta

    thanhfuta Active Member

    Tham gia ngày:
    30/8/10
    Bài viết:
    385
    Đã được cảm ơn:
    192
    Giới tính:
    Nam
    link die mất rồi
     

Chia sẻ trang này