[Fshare] Thám Tử Sherlock Hound (Thuyết minh) | Sherlock Hound 1984 BluRay VIE 1080p x264 DD 2.0 - Moozzi

Thảo luận trong 'Phim hoạt hình' bắt đầu bởi ngocyen, 15/5/16.

  1. ngocyen

    ngocyen Well-Known Member

    Tham gia ngày:
    29/10/12
    Bài viết:
    38
    Đã được cảm ơn:
    499

    Thám Tử Sherlock Hound
    Sherlock Hound

    Đạo diễn: Hayao Miyazaki, Kyôsuke Mikuriya
    IMDB: 7.5/10


    [​IMG]



    Phim gồm 26 tập, được gộp thành 4 tập tin MKV cho tiện theo dõi. Mỗi tập tin đều có chapter cho từng tập để bấm nhảy tập dễ dàng.

    [​IMG]
    [​IMG]
    [​IMG]

    Mã:
    General
    Unique ID                                : 214389198618615642192143615133034067419 (0xA149DB94AB93339786E73CCF0C1DB5DB)
    Complete name                            : \\BIGGEM\Movies\Cartoons\Detective\1984 ★★★ Sherlock Hound 1.mkv
    Format                                   : Matroska
    Format version                           : Version 4 / Version 2
    File size                                : 13.3 GiB
    Duration                                 : 2h 50mn
    Overall bit rate mode                    : Variable
    Overall bit rate                         : 11.2 Mbps
    Movie name                               : Sherlock Hound
    Encoded date                             : UTC 2016-05-14 21:25:03
    Writing application                      : mkvmerge v9.1.0 ('Little Earthquakes') 64bit
    Writing library                          : libebml v1.3.3 + libmatroska v1.4.4
    Video
    ID                                       : 1
    Format                                   : AVC
    Format/Info                              : Advanced Video Codec
    Format profile                           : [email protected]
    Format settings, CABAC                   : Yes
    Format settings, ReFrames                : 4 frames
    Codec ID                                 : V_MPEG4/ISO/AVC
    Duration                                 : 2h 50mn
    Bit rate mode                            : Variable
    Bit rate                                 : 10 000 Kbps
    Maximum bit rate                         : 40.0 Mbps
    Width                                    : 1 440 pixels
    Height                                   : 1 080 pixels
    Display aspect ratio                     : 4:3
    Frame rate mode                          : Constant
    Frame rate                               : 23.976 (24000/1001) fps
    Color space                              : YUV
    Chroma subsampling                       : 4:2:0
    Bit depth                                : 8 bits
    Scan type                                : Progressive
    Bits/(Pixel*Frame)                       : 0.268
    Stream size                              : 11.9 GiB (89%)
    Writing library                          : x264 core 148 r2638 7599210
    Encoding settings                        : cabac=1 / ref=4 / deblock=1:-1:-1 / analyse=0x3:0x113 / me=umh / subme=9 / psy=1 / psy_rd=0.70:0.00 / mixed_ref=1 / me_range=24 / chroma_me=1 / trellis=0 / 8x8dct=1 / cqm=0 / deadzone=21,11 / fast_pskip=0 / chroma_qp_offset=-2 / threads=12 / lookahead_threads=1 / sliced_threads=0 / nr=0 / decimate=1 / interlaced=0 / bluray_compat=0 / constrained_intra=0 / bframes=3 / b_pyramid=2 / b_adapt=2 / b_bias=0 / direct=1 / weightb=1 / open_gop=0 / weightp=2 / keyint=240 / keyint_min=23 / scenecut=40 / intra_refresh=0 / rc_lookahead=40 / rc=2pass / mbtree=1 / bitrate=10000 / ratetol=1.0 / qcomp=0.60 / qpmin=0 / qpmax=69 / qpstep=4 / cplxblur=20.0 / qblur=0.5 / ip_ratio=1.40 / aq=1:1.0
    Language                                 : Japanese
    Default                                  : Yes
    Forced                                   : No
    Audio #1
    ID                                       : 2
    Format                                   : AC-3
    Format/Info                              : Audio Coding 3
    Mode extension                           : CM (complete main)
    Format settings, Endianness              : Big
    Codec ID                                 : A_AC3
    Duration                                 : 2h 50mn
    Bit rate mode                            : Constant
    Bit rate                                 : 384 Kbps
    Channel(s)                               : 2 channels
    Channel positions                        : Front: L R
    Sampling rate                            : 48.0 KHz
    Frame rate                               : 31.250 fps (1536 spf)
    Compression mode                         : Lossy
    Stream size                              : 469 MiB (3%)
    Title                                    : Vietnamese
    Language                                 : Vietnamese
    Default                                  : Yes
    Forced                                   : No
    Audio #2
    ID                                       : 3
    Format                                   : FLAC
    Format/Info                              : Free Lossless Audio Codec
    Codec ID                                 : A_FLAC
    Duration                                 : 2h 50mn
    Bit rate mode                            : Variable
    Bit rate                                 : 788 Kbps
    Channel(s)                               : 2 channels
    Channel positions                        : Front: L R
    Sampling rate                            : 48.0 KHz
    Frame rate                               : 41.667 fps (1152 spf)
    Bit depth                                : 16 bits
    Stream size                              : 962 MiB (7%)
    Title                                    : Japanese
    Writing library                          : libFLAC 1.3.1 (UTC 2014-11-25)
    Language                                 : Japanese
    Default                                  : No
    Forced                                   : No
    Text #1
    ID                                       : 4
    Format                                   : UTF-8
    Codec ID                                 : S_TEXT/UTF8
    Codec ID/Info                            : UTF-8 Plain Text
    Duration                                 : 2h 50mn
    Bit rate                                 : 61 bps
    Count of elements                        : 2106
    Stream size                              : 76.6 KiB (0%)
    Title                                    : Vietnamese
    Language                                 : Vietnamese
    Default                                  : No
    Forced                                   : No
    Text #2
    ID                                       : 5
    Format                                   : UTF-8
    Codec ID                                 : S_TEXT/UTF8
    Codec ID/Info                            : UTF-8 Plain Text
    Duration                                 : 2h 48mn
    Bit rate                                 : 46 bps
    Count of elements                        : 2139
    Stream size                              : 57.3 KiB (0%)
    Title                                    : English
    Language                                 : English
    Default                                  : No
    Forced                                   : No
    Menu
    00:00:00.000                             : en:Episode 1: The Famous Detective - vi:Tập 1: Thám tử lừng danh
    00:25:58.875                             : en:Episode 2: The Evil Genius, Professor Moriarty - vi:Tập 2: Thiên tài tội phạm Moriarty
    00:50:21.849                             : en:Episode 3: Little Martha’s Big Mystery - vi:Tập 3: Bí ẩn lớn của Martha
    01:14:44.889                             : en:Episode 4: The Mrs. Hudson Kidnapping Case - vi:Tập 4: Bà Hudson bị bắt cóc
    01:39:07.929                             : en:Episode 5: The Blue Ruby - vi:Tập 5: Viên ngọc xanh biển
    02:03:31.538                             : en:Episode 6: The Mystery Green Balloon - vi:Tập 6: Quả bong bóng bí ẩn
    02:27:54.510                             : en:Episode 7: The Great Chase of Little Detectives - vi:Tập 7: Cuộc truy đuổi của các thám tử nhí
    
     
    Chỉnh sửa cuối: 18/1/18
  2. ngocyen

    ngocyen Well-Known Member

    Tham gia ngày:
    29/10/12
    Bài viết:
    38
    Đã được cảm ơn:
    499
    Đã up lại các tập bị xóa...
     
  3. chauchau17

    chauchau17 Member

    Tham gia ngày:
    5/10/11
    Bài viết:
    37
    Đã được cảm ơn:
    35
    có link 4share ko bác ơi :)
     
  4. ngocyen

    ngocyen Well-Known Member

    Tham gia ngày:
    29/10/12
    Bài viết:
    38
    Đã được cảm ơn:
    499
    Mình chỉ có tài khoản fshare thôi bạn :(
     
  5. chauchau17

    chauchau17 Member

    Tham gia ngày:
    5/10/11
    Bài viết:
    37
    Đã được cảm ơn:
    35
    tks :)
     
  6. KRD

    KRD New Member

    Tham gia ngày:
    14/7/14
    Bài viết:
    15
    Đã được cảm ơn:
    5
    thiếu mất tạp 3 trông thư mục rồi bác ơi
     
  7. muaban999

    muaban999 New Member

    Tham gia ngày:
    13/5/17
    Bài viết:
    8
    Đã được cảm ơn:
    0
    nghe tin lạ hoắc nhưng chắc phải xem thử xem thế nào
     
  8. tien_huu_1408

    tien_huu_1408 Member

    Tham gia ngày:
    17/10/18
    Bài viết:
    69
    Đã được cảm ơn:
    27
    Giới tính:
    Nam
    Bác nào up lên tập 3 cho full bộ nha. thanks!
     
  9. Katyusha

    Katyusha New Member

    Tham gia ngày:
    19/11/12
    Bài viết:
    16
    Đã được cảm ơn:
    0
    Bác reup lại tập 3 giùm mình với. Mình cám ơn nhiều.
     
  10. hizamichi

    hizamichi New Member

    Tham gia ngày:
    23/4/11
    Bài viết:
    15
    Đã được cảm ơn:
    9
    Giới tính:
    Nam
    Nghề nghiệp:
    Sinh Vien
    Nơi ở:
    Viet Nam
    Bác reup lại tập 3 giùm mình với. Mình cám ơn nhiều.
     
  11. dragonboyzen

    dragonboyzen Active Member

    Tham gia ngày:
    30/4/09
    Bài viết:
    123
    Đã được cảm ơn:
    90
    tập 3 đã bị xoá.làm ơn up lại giúp. thanks
     
  12. saigonbig

    saigonbig New Member

    Tham gia ngày:
    18/2/09
    Bài viết:
    16
    Đã được cảm ơn:
    6
  13. dragonboyzen

    dragonboyzen Active Member

    Tham gia ngày:
    30/4/09
    Bài viết:
    123
    Đã được cảm ơn:
    90
    dark_knight_1408 cảm ơn bài này.
  14. anhtiendaica

    anhtiendaica New Member

    Tham gia ngày:
    4/12/09
    Bài viết:
    11
    Đã được cảm ơn:
    3
    Fshare xóa mất tập 4 rồi bác ơi :(, bác up lại giúp em với. Thanks bác.
     
  15. meorom

    meorom Member

    Tham gia ngày:
    17/1/14
    Bài viết:
    75
    Đã được cảm ơn:
    36
    bị xóa hết rồi, ai làm ơn reup với
     
  16. bungbukaka

    bungbukaka Active Member

    Tham gia ngày:
    8/6/11
    Bài viết:
    108
    Đã được cảm ơn:
    25
    bác nào còn please reup lại giúp mình với :)
     
  17. BinhLe15

    BinhLe15 Member

    Tham gia ngày:
    28/10/17
    Bài viết:
    37
    Đã được cảm ơn:
    8
    Giới tính:
    Nam
    Link die rồi bạn ơi, re-up lại link khác giúp mình nhé.
    Thanks!!
     
  18. meorom

    meorom Member

    Tham gia ngày:
    17/1/14
    Bài viết:
    75
    Đã được cảm ơn:
    36
    không biết chủ thớt còn hoạt động không, bác chủ thớt làm ơn re-up lại với
     
  19. hizamichi

    hizamichi New Member

    Tham gia ngày:
    23/4/11
    Bài viết:
    15
    Đã được cảm ơn:
    9
    Giới tính:
    Nam
    Nghề nghiệp:
    Sinh Vien
    Nơi ở:
    Viet Nam
    meorom and TearOfTheRain like this.
  20. spiritss

    spiritss Active Member

    Tham gia ngày:
    21/4/13
    Bài viết:
    151
    Đã được cảm ơn:
    133
    Chỉnh sửa cuối: 27/8/20
    Alikaka and Trần Bình 69 like this.

Chia sẻ trang này