[Tâm Lý] Blood For Dracula 1974 1080p BluRay x264-PFa - Ma đi hỏi vợ

Thảo luận trong 'Fshare.vn' bắt đầu bởi xemaydinh, 11/1/22.

  1. xemaydinh

    xemaydinh Tem

    Tham gia ngày:
    3/7/10
    Bài viết:
    35,934
    Đã được cảm ơn:
    188,895
    Blood For Dracula 1974 1080p BluRay x264-PFa - 18+

    Ma đi hỏi vợ
    [​IMG]


    Phim kể về chuyến đi tìm vợ tận Italia của một con ma cà trồng ốm yếu tật nguyền. Trên đường đi hắn cần phải duy trì sự sống bằng máu tươi.


    Video
    ID : 1
    Format : AVC
    Format/Info : Advanced Video Codec
    Format profile : [email protected]
    Format settings : CABAC / 4 Ref Frames
    Format settings, CABAC : Yes
    Format settings, Reference frames : 4 frames
    Codec ID : V_MPEG4/ISO/AVC
    Duration : 1 h 43 min
    Bit rate : 9 089 kb/s
    Width : 1 920 pixels
    Height : 1 080 pixels
    Display aspect ratio : 16:9
    Frame rate mode : Constant
    Frame rate : 29.970 (30000/1001) FPS
    Color space : YUV
    Chroma subsampling : 4:2:0
    Bit depth : 8 bits
    Scan type : Progressive
    Bits/(Pixel*Frame) : 0.146
    Stream size : 6.40 GiB (84%)
    Writing library : x264 core 142 r2389 956c8d8
    Encoding settings : cabac=1 / ref=4 / deblock=1:0:0 / analyse=0x3:0x133 / me=umh / subme=8 / psy=1 / psy_rd=1.00:0.00 / mixed_ref=1 / me_range=16 / chroma_me=1 / trellis=1 / 8x8dct=1 / cqm=0 / deadzone=21,11 / fast_pskip=0 / chroma_qp_offset=-2 / threads=12 / lookahead_threads=2 / sliced_threads=0 / nr=0 / decimate=1 / interlaced=0 / bluray_compat=0 / constrained_intra=0 / bframes=3 / b_pyramid=2 / b_adapt=1 / b_bias=0 / direct=1 / weightb=1 / open_gop=0 / weightp=2 / keyint=250 / keyint_min=25 / scenecut=40 / intra_refresh=0 / rc_lookahead=40 / rc=2pass / mbtree=1 / bitrate=9089 / ratetol=1.0 / qcomp=0.60 / qpmin=0 / qpmax=69 / qpstep=4 / cplxblur=20.0 / qblur=0.5 / ip_ratio=1.40 / aq=1:1.00
    Language : English
    Default : Yes
    Forced : No

    Audio
    ID : 2
    Format : DTS
    Format/Info : Digital Theater Systems
    Codec ID : A_DTS
    Duration : 1 h 43 min
    Bit rate mode : Constant
    Bit rate : 1 509 kb/s
    Channel(s) : 2 channels
    Channel layout : L R
    Sampling rate : 48.0 kHz
    Frame rate : 93.750 FPS (512 SPF)
    Bit depth : 24 bits
    Compression mode : Lossy
    Delay relative to video : -67 ms
    Stream size : 1.09 GiB (14%)
    Default : Yes
    Forced : No




    [​IMG]

    [​IMG]


    Fshare ~7.64 GB



    Nhấn nút Cảm ơn (dưới chân bài) để thấy link!


    4Share

    Nhấn nút Cảm ơn (dưới chân bài) để thấy link!


    Sub Việt

    https://subscene.com/subtitles/blood-for-dracula



    Tổng hợp phim 18+

    Tổng hợp phim full Menu (Thuyết minh+Sub Việt) bluray (nethd.org)

    Tổng hợp phim bộ Lồng tiếng, thuyết minh, sub việt

    Tổng hợp phim bluray Remux ISO 4K




    mhd https://www.fshare.vn/file/TAPCDKF58F57

    720p

    1080p https://hdvietnam.com/threads/tam-l...4-1080p-bluray-x264-pfa-ma-di-hoi-vo.1751856/

    Thuyết minh

    Remux https://hdvietnam.com/threads/tam-l...y-remux-avc-dd2-0-abcat-ma-di-hoi-vo.1751859/

    Remux 4K https://hdvietnam.com/threads/remux...-ray-hevc-dts-hd-ma-2-0-ma-di-hoi-vo.1751857/

    ISO
     
    Chỉnh sửa cuối: 19/1/22
    hanutina, tieubao-64, 5ti and 12 others like this.
  2. ananvinh

    ananvinh Well-Known Member

    Tham gia ngày:
    27/11/09
    Bài viết:
    516
    Đã được cảm ơn:
    335
  3. xemaydinh

    xemaydinh Tem

    Tham gia ngày:
    3/7/10
    Bài viết:
    35,934
    Đã được cảm ơn:
    188,895
    4Share

    Nhấn nút Cảm ơn (dưới chân bài) để thấy link!
     

Chia sẻ trang này