[Tâm Lý ] Beautiful Wrestler: Down for the Count 1984 1080i Bluray REMUX AVC TrueHD 2 0

Thảo luận trong 'Bluray Remux' bắt đầu bởi canodinh, 19/9/21.

  1. canodinh

    canodinh Well-Known Member

    Tham gia ngày:
    10/9/11
    Bài viết:
    503
    Đã được cảm ơn:
    3,176
    Beautiful Wrestler: Down for the Count 1984 1080i Bluray REMUX AVC TrueHD 2 0 | 18+
    [​IMG]

    Phim nhiều cảnh nóng





    Title Bishôjo puroresu: Shisshin 10-byo mae

    Year 1984

    Genre Comedy
    Rating 5.2 (51 votes)
    Plot n/A
    Director Hiroyuki Nasu
    Casts Natsuko Yamamoto / Kaoru Oda / Ryoko Watanabe / Makoto Yoshino / Kiriko Shimizu…
    Runtime 72 min


    Megu (Natsuko Yamamoto) enrolls in an extracurricular girls' wrestling club, but things aren't quite what she expected. She soon learns the club's training program includes humiliating sexual submission to the senior female wrestlers and that the club's finances are secured with the prostitution of the girls to the members of a nearby all-male wrestling club. Megu's life is further strained when a rival wrestler Shinobu (Kaoru Ada) shows interest in her new boyfriend. This tension erupts at a no-holds-barred wrestling match. Megu's strength is pushed to the limit but she has a secret weapon—superhuman strength whenever she removes her tampon.


    General
    Unique ID : 232069325190824459750397611395771129429 (0xAE96ED1F1AE1F3E577F0F2376B6DDE55)
    Complete name : Beautiful.Wrestler.Down.For.The.Count.1984.1080i.BluRay.REMUX.AVC.TrueHD.2.0-engsubs.mkv
    Format : Matroska
    Format version : Version 4
    File size : 15.8 GiB
    Duration : 1 h 11 min
    Overall bit rate mode : Variable
    Overall bit rate : 31.6 Mb/s
    Encoded date : UTC 2021-01-30 13:29:14
    Writing application : mkvmerge v50.0.0 ('Awakenings') 64-bit
    Writing library : libebml v1.4.0 + libmatroska v1.6.2

    Video
    ID : 1
    Format : AVC
    Format/Info : Advanced Video Codec
    Format profile : [email protected]
    Format settings : CABAC / 4 Ref Frames
    Format settings, CABAC : Yes
    Format settings, RefFrames : 4 frames
    Codec ID : V_MPEG4/ISO/AVC
    Duration : 1 h 11 min
    Bit rate mode : Variable
    Bit rate : 30.4 Mb/s
    Maximum bit rate : 38.0 Mb/s
    Width : 1 920 pixels
    Height : 1 080 pixels
    Display aspect ratio : 16:9
    Frame rate mode : Constant
    Frame rate : 29.970 (30000/1001) FPS
    Color space : YUV
    Chroma subsampling : 4:2:0
    Bit depth : 8 bits
    Scan type : MBAFF
    Scan type, store method : Interleaved fields
    Scan order : Top Field First
    Bits/(Pixel*Frame) : 0.490
    Stream size : 15.2 GiB (96%)
    Default : Yes
    Forced : No

    Audio #1
    ID : 2
    Format : MLP FBA
    Format/Info : Meridian Lossless Packing FBA
    Commercial name : Dolby TrueHD
    Codec ID : A_TRUEHD
    Duration : 1 h 11 min
    Bit rate mode : Variable
    Bit rate : 627 kb/s
    Maximum bit rate : 789 kb/s
    Channel(s) : 2 channels
    Channel layout : L R
    Sampling rate : 48.0 kHz
    Frame rate : 1 200.000 FPS (40 SPF)
    Compression mode : Lossless
    Stream size : 321 MiB (2%)
    Language : Japanese
    Default : Yes
    Forced : No

    Audio #2
    ID : 3
    Format : AC-3
    Format/Info : Audio Coding 3
    Commercial name : Dolby Digital
    Codec ID : A_AC3
    Duration : 1 h 11 min
    Bit rate mode : Constant
    Bit rate : 448 kb/s
    Channel(s) : 2 channels
    Channel layout : L R
    Sampling rate : 48.0 kHz
    Frame rate : 31.250 FPS (1536 SPF)
    Bit depth : 16 bits
    Compression mode : Lossy
    Stream size : 229 MiB (1%)
    Language : Japanese
    Service kind : Complete Main
    Default : No
    Forced : No

    Text #1
    ID : 4
    Format : PGS
    Muxing mode : zlib
    Codec ID : S_HDMV/PGS
    Codec ID/Info : Picture based subtitle format used on BDs/HD-DVDs
    Duration : 1 h 11 min
    Bit rate : 27.3 kb/s
    Count of elements : 1662
    Stream size : 13.9 MiB (0%)
    Language : Japanese
    Default : No
    Forced : No

    Text #2
    ID : 5
    Format : PGS
    Muxing mode : zlib
    Codec ID : S_HDMV/PGS
    Codec ID/Info : Picture based subtitle format used on BDs/HD-DVDs
    Duration : 1 h 11 min
    Bit rate : 23.6 kb/s
    Count of elements : 1242
    Stream size : 12.1 MiB (0%)
    Language : English
    Default : Yes
    Forced : No

    Menu
    00:00:00.000 : :Chapter 1
    00:09:36.776 : :Chapter 2
    00:19:16.355 : :Chapter 3
    00:27:20.272 : :Chapter 4
    00:34:24.696 : :Chapter 5
    00:42:11.496 : :Chapter 6
    00:47:19.704 : :Chapter 7
    00:56:58.916 : :Chapter 8



    [​IMG] [​IMG]

    [​IMG]





    mhd

    720p

    1080p

    Thuyết minh

    Remux

    ISO
     
    Chỉnh sửa cuối: 29/5/22

Chia sẻ trang này