[Fshare] [Tam Li | 1link ] The Great Gatsby 2013 1080p BluRay DTS x264-NTb & VAV - Đại gia Gatsby

Thảo luận trong 'Phim có audio Việt' bắt đầu bởi xemaydinh, 24/11/13.

  1. xemaydinh

    xemaydinh Tem

    Tham gia ngày:
    3/7/10
    Bài viết:
    35,908
    Đã được cảm ơn:
    188,542
    The Great Gatsby 2013 1080p BluRay DTS x264-NTb & VAV - Đại gia Gatsby


    [​IMG]

    [​IMG]





    Mã:
    General
    Unique ID                                : 202847497225821801710989991952189182941 (0x989B01C488B7DC2185E21EE8BFB353DD)
    Format                                   : Matroska
    Format version                           : Version 2
    File size                                : 16.9 GiB
    Duration                                 : 2h 22mn
    Overall bit rate                         : 17.0 Mbps
    Movie name                               : The.Great.Gatsby.2013.ViE.1080p.BluRay.DTS.x264-Ntb&VAV
    Encoded date                             : UTC 2013-10-03 11:50:24
    Writing application                      : mkvmerge v5.8.0 ('No Sleep / Pillow') built on Sep  2 2012 15:37:04
    Writing library                          : libebml v1.2.3 + libmatroska v1.3.0
    
    Video
    ID                                       : 1
    Format                                   : AVC
    Format/Info                              : Advanced Video Codec
    Format profile                           : [email protected]
    Format settings, CABAC                   : Yes
    Format settings, ReFrames                : 5 frames
    Muxing mode                              : Header stripping
    Codec ID                                 : V_MPEG4/ISO/AVC
    Duration                                 : 2h 22mn
    Bit rate                                 : 13.6 Mbps
    Width                                    : 1 920 pixels
    Height                                   : 800 pixels
    Display aspect ratio                     : 2.40:1
    Frame rate mode                          : Constant
    Frame rate                               : 23.976 fps
    Color space                              : YUV
    Chroma subsampling                       : 4:2:0
    Bit depth                                : 8 bits
    Scan type                                : Progressive
    Bits/(Pixel*Frame)                       : 0.370
    Stream size                              : 13.5 GiB (80%)
    Title                                    : The Great Gatsby (2013) | VAV STUDIO
    Writing library                          : x264 core 136 r2348+704+51 d1baef6 tMod [[email protected]:2:0 X86]
    Encoding settings                        : cabac=1 / ref=5 / deblock=1:-3:-3 / analyse=0x3:0x113 / me=umh / subme=10 / psy=1 / fade_compensate=0.00 / psy_rd=1.08:0.05 / mixed_ref=1 / me_range=32 / chroma_me=1 / trellis=2 / 8x8dct=1 / cqm=0 / deadzone=21,11 / fast_pskip=0 / chroma_qp_offset=-3 / threads=6 / lookahead_threads=1 / sliced_threads=0 / nr=0 / decimate=0 / interlaced=0 / bluray_compat=0 / constrained_intra=0 / fgo=0 / bframes=8 / b_pyramid=2 / b_adapt=2 / b_bias=0 / direct=3 / weightb=1 / open_gop=0 / weightp=2 / keyint=250 / keyint_min=23 / scenecut=40 / intra_refresh=0 / rc_lookahead=60 / rc=crf / mbtree=0 / crf=18.0000 / qcomp=0.75 / qpmin=0:0:0 / qpmax=69:69:69 / qpstep=4 / vbv_maxrate=50000 / vbv_bufsize=62500 / crf_max=0.0 / nal_hrd=none / ip_ratio=1.20 / pb_ratio=1.10 / aq=3:0.75 / aq-sensitivity=10.00 / aq-factor=1.00:1.00:1.00 / aq2=0 / aq3=0
    Language                                 : English
    Default                                  : Yes
    Forced                                   : No
    
    Audio #1
    ID                                       : 2
    Format                                   : DTS
    Format/Info                              : Digital Theater Systems
    Mode                                     : 16
    Format settings, Endianness              : Big
    Muxing mode                              : Header stripping
    Codec ID                                 : A_DTS
    Duration                                 : 2h 22mn
    Bit rate mode                            : Constant
    Bit rate                                 : 1 510 Kbps
    Channel count                            : 6 channels
    Channel positions                        : Front: L C R, Side: L R, LFE
    Sampling rate                            : 48.0 KHz
    Bit depth                                : 24 bits
    Compression mode                         : Lossy
    Stream size                              : 1.50 GiB (9%)
    Title                                    : ViE DTS @ 1510 Kbps
    Language                                 : Vietnamese
    Default                                  : Yes
    Forced                                   : No
    
    Audio #2
    ID                                       : 5
    Format                                   : DTS
    Format/Info                              : Digital Theater Systems
    Mode                                     : 16
    Format settings, Endianness              : Big
    Muxing mode                              : Header stripping
    Codec ID                                 : A_DTS
    Duration                                 : 2h 22mn
    Bit rate mode                            : Constant
    Bit rate                                 : 1 509 Kbps
    Channel count                            : 6 channels
    Channel positions                        : Front: L C R, Side: L R, LFE
    Sampling rate                            : 48.0 KHz
    Bit depth                                : 24 bits
    Compression mode                         : Lossy
    Stream size                              : 1.50 GiB (9%)
    Title                                    : Eng DTS @ 1510 Kbps
    Language                                 : English
    Default                                  : No
    Forced                                   : No
    
    Text #1
    ID                                       : 3
    Format                                   : UTF-8
    Codec ID                                 : S_TEXT/UTF8
    Codec ID/Info                            : UTF-8 Plain Text
    Title                                    : VAV STUDIO
    Language                                 : French
    Default                                  : Yes
    Forced                                   : No
    
    Text #2
    ID                                       : 4
    Format                                   : UTF-8
    Codec ID                                 : S_TEXT/UTF8
    Codec ID/Info                            : UTF-8 Plain Text
    Language                                 : English
    Default                                  : No
    Forced                                   : No
    
    Text #3
    ID                                       : 6
    Format                                   : UTF-8
    Codec ID                                 : S_TEXT/UTF8
    Codec ID/Info                            : UTF-8 Plain Text
    Language                                 : Vietnamese
    Default                                  : No
    Forced                                   : No
    
    Menu
    00:00:00.000                             : en:00:00:00.000
    00:11:04.080                             : en:00:11:04.080
    00:22:55.833                             : en:00:22:55.833
    00:34:26.898                             : en:00:34:26.898
    00:44:48.728                             : en:00:44:48.728
    00:55:36.333                             : en:00:55:36.333
    01:06:20.643                             : en:01:06:20.643
    01:18:27.786                             : en:01:18:27.786
    01:31:13.927                             : en:01:31:13.927
    01:44:11.954                             : en:01:44:11.954
    01:56:35.155                             : en:01:56:35.155
    02:05:46.122                             : en:02:05:46.122
    02:09:40.982                             : en:02:09:40.982
    
    


    [​IMG]



    Source vs NTb vs SPARKS
    [​IMG] [​IMG] [​IMG]
    [​IMG] [​IMG] [​IMG]
    [​IMG] [​IMG] [​IMG]
    [​IMG] [​IMG] [​IMG]
    [​IMG] [​IMG] [​IMG]
    [​IMG] [​IMG] [​IMG]

    Link tải phim
    The Great Gatsby 2013 1080p BluRay DTS x264-NTb & VAV - Đại gia Gatsby
    LINK FSHARE
    Nhấn nút Cảm ơn (dưới chân bài) để thấy link!

    OTHER LINK

    LINK TORRENTS

    Phim đã được Mux đầy đủ Audio Eng + Việt | Sub: Eng + Việt trong file MKV


    [ VAV STUDIO ] TỔNG HỢP PHIM HD THUYẾT MINH TIẾNG VIỆT



    [​IMG] [​IMG] [​IMG]





    720p http://www.hdvietnam.com/diendan/26...li-1link-great-gatsby-2013-a.html#post6365705
     
  2. ronaldo08

    ronaldo08 New Member

    Tham gia ngày:
    13/12/09
    Bài viết:
    18
    Đã được cảm ơn:
    1
    Ðề: [Tam Li | 1link ] The Great Gatsby 2013 1080p BluRay DTS x264-NTb & VAV - Đại gia Gatsby

    thanks bro nhiều ~:>
     
  3. langdu01

    langdu01 Well-Known Member

    Tham gia ngày:
    29/5/11
    Bài viết:
    1,411
    Đã được cảm ơn:
    595
    Ðề: [Tam Li | 1link ] The Great Gatsby 2013 1080p BluRay DTS x264-NTb & VAV - Đại gia Gatsby

    Cám ơn đã chia sẻ.
     
  4. cuongtbgd

    cuongtbgd Active Member

    Tham gia ngày:
    13/3/14
    Bài viết:
    458
    Đã được cảm ơn:
    111
    Giới tính:
    Nam
    Ðề: [Tam Li | 1link ] The Great Gatsby 2013 1080p BluRay DTS x264-NTb & VAV - Đại gia Gatsby

    cảm ơn bác link vẫn còn, hôm trước em vừa tìm thấy ở địa chỉ khác nhưng chưa kịp down thì chỉ còn lại 3D...
     

Chia sẻ trang này