[Sub Việt] Hotel Transylvania 4: Transformania 2022 1080p & 2160P AMZN & PROPER ATMOST WEB-DL DDP5.1

Thảo luận trong 'WEB-DL, HDTV' bắt đầu bởi garunggp, 14/1/22.

  1. garunggp

    garunggp Well-Known Member

    Tham gia ngày:
    9/11/11
    Bài viết:
    261
    Đã được cảm ơn:
    2,015
    Transylvania 4: Transformania 2022 1080p PROPER
    Khách Sạn Huyền Bí 4: Ma Cà Rồng Biến Hình (Sub việt)
    [​IMG]
    [​IMG]
    https://www.imdb.com/title/tt9848626/

    MEDIAINFO

    Mã:
    Video
    ID                          : 1
    Format                      : AVC
    Format/Info                 : Advanced Video Codec
    Format profile              : [email protected]
    Format settings             : CABAC / 4 Ref Frames
    Format settings, CABAC      : Yes
    Format settings, Reference  : 4 frames
    Codec ID                    : V_MPEG4/ISO/AVC
    
    
    Duration                    : 1 h 27 min
    Bit rate mode               : Constant
    Bit rate                    : 8 545 kb/s
    Nominal bit rate            : 10 000 kb/s
    Width                       : 1 920 pixels
    Height                      : 1 040 pixels
    Display aspect ratio        : 1.85:1
    Frame rate mode             : Constant
    Frame rate                  : 23.976 (24000/1001) FPS
    Color space                 : YUV
    Chroma subsampling          : 4:2:0
    Bit depth                   : 8 bits
    Scan type                   : Progressive
    Bits/(Pixel*Frame)          : 0.178
    Stream size                 : 5.22 GiB (93%)
    Default                     : Yes
    Audio
    ID                          : 2
    Format                      : E-AC-3 JOC
    Format/Info                 : Enhanced AC-3 with Joint Object Coding
    Commercial name             : Dolby Digital Plus with Dolby Atmos
    Codec ID                    : A_EAC3
    Duration                    : 1 h 27 min
    Bit rate mode               : Constant
    Bit rate                    : 448 kb/s
    Channel(s)                  : 6 channels
    Channel layout              : L R C LFE Ls Rs
    Sampling rate               : 48.0 kHz
    Frame rate                  : 31.250 FPS (1536 SPF)
    Compression mode            : Lossy
    Stream size                 : 280 MiB (5%)
    Language                    : English
    Text #49
    ID                          : 51
    Format                      : UTF-8
    Codec ID                    : S_TEXT/UTF8
    Codec ID/Info               : UTF-8 Plain Text
    Title                       : Vietnamese (Vietnam)
    Language                    : Vietnamese
    Default                     : No
    Forced                      : No

    Nội Dung
    Trailer

    Screenshot
    [​IMG] [​IMG] [​IMG]
    Download
    [​IMG]

    Tất cả các bản

    5,6 GB Phụ đề mux sẵn

    Hotel.transylvania.transformania.2022.proper.1080p.web.h264-naisu
    Hotel.Transylvania.4.Transformania.1080p.AMZN.WEB-DL.DDP5.1.Atmos.H.264-EVO
    6 GB Phụ đề mux sẵn


    Hotel.Transylvania.4.Transformania.2022.2160p.WEB-DL.DDP5.1.Atmos.HDR.HEVC-EVO
    9,64 GB Phụ đề mux sẵn

    Phụ đề chuẩn
    Nhấn nút Cảm ơn (dưới chân bài) để thấy link!

    https://subscene.com/subtitles/hotel-transylvania-transformania

     
    Chỉnh sửa cuối: 14/1/22
    binhdata, xkvnn2, nguyen114 and 93 others like this.
  2. garunggp

    garunggp Well-Known Member

    Tham gia ngày:
    9/11/11
    Bài viết:
    261
    Đã được cảm ơn:
    2,015
    Update
    Hotel.Transylvania.4.Transformania.1080p.AMZN.WEB-DL.DDP5.1.Atmos.H.264-EVO
    6 GB Phụ đề mux sẵn

    Nhấn nút Cảm ơn (dưới chân bài) để thấy link!
     
  3. garunggp

    garunggp Well-Known Member

    Tham gia ngày:
    9/11/11
    Bài viết:
    261
    Đã được cảm ơn:
    2,015
    Hotel.Transylvania.4.Transformania.2022.2160p.WEB-DL.DDP5.1.Atmos.HDR.HEVC-EVO
    9,64 GB Phụ đề mux sẵn

     
    tn20992 cảm ơn bài này.

Chia sẻ trang này