[Fshare] Sons of Anarchy Complete Series 1080p DTS-HDMA 5.1 AVC REMUX-FraMeSToR ~ Giang Hồ Đẫm Máu (Vietsub)

Thảo luận trong 'Phim bộ - Series' bắt đầu bởi tremocoivo, 16/8/20.

  1. tremocoivo

    tremocoivo Well-Known Member

    Tham gia ngày:
    25/2/10
    Bài viết:
    1,576
    Đã được cảm ơn:
    52,141
    Giới tính:
    Nam

    Giang Hồ Đẫm Máu (2008 - 2014)
    Sons of Anarchy Complete Series 1080p DTS-HDMA 5.1 AVC REMUX-FraMeSToR {Sub Việt Mux Sẵn}

    [​IMG]
    [​IMG]
    https://www.imdb.com/title/tt1124373


    Sons of Anarchy là một bộ phim truyền hình tội phạm của Mỹ bởi đạo diễn Kurt Sutter ( Đồng thời cũng là nhân vật Otto trong film , được phát sóng vào năm 2008 và kết thúc vào năm 2014. Kể cuộc đời của một câu lạc bộ xe gắn máy sống ngoài vòng pháp luật hoạt động tại Charming , một thị trấn hư cấu ở Thung lũng Trung tâm California . Charlie Hunnam trong vai Charlie Jackson là "Jax" Teller.
    Mỗi Season sẽ liên quan đến âm mưu song song đan xen và chồng lên nhau, tập trung vào cả đời sống cá nhân và gia đình của Jackson "Jax" Teller ( Charlie Hunnam ) và trên SAMCRO ( viết tắt bởi Sons of Anarchy Motorcycle Club, Redwood Original). SAMCRO có liên quan đến việc buôn súng ở miền tây Hoa Kỳ, và đối phó với các băng nhóm đối thủ, chính trị gia và chính quyền. Chính thức lúc đầu là phó chủ tịch và sau đó lên giữ chủ tịch sau này của SAMCRO, sau khi phát hiện những tội ác mà chủ tịch cũ đã giấu diếm anh. Jax đấu tranh để quản lý câu lạc bộ và giữ lại tâm huyết của người sáng lập chính là người cha quá cố John.

    Mã:
    General
    Unique ID                   : 9390434450143484604169798175317466897 (0x7108829EEA0BDC01D515C3B88BE9F11)
    Complete name               : H:\My Drive\VPS\Son of Anarchy (2008)\Season 01\Sons.of.Anarchy.S01E01.Pilot.1080p.DTS-HD.MA.5.1.AVC.REMUX-FraMeSToR.mkv
    Format                      : Matroska
    Format version              : Version 4
    File size                   : 9.76 GiB
    Duration                    : 57 min 11 s
    
    
    Overall bit rate mode       : Variable
    Overall bit rate            : 24.4 Mb/s
    Movie name                  : Sons of Anarchy S01E01
    Encoded date                : UTC 2020-08-13 06:45:41
    Writing application         : mkvmerge v45.0.0 ('Heaven in Pennies') 64-bit
    Writing library             : libebml v1.3.10 + libmatroska v1.5.2
    Cover                       : Yes
    Attachments                 : cover.jpg
    Video
    ID                          : 1
    Format                      : AVC
    Format/Info                 : Advanced Video Codec
    Format profile              : [email protected]
    Format settings             : CABAC / 4 Ref Frames
    Format settings, CABAC      : Yes
    Format settings, Reference  : 4 frames
    Codec ID                    : V_MPEG4/ISO/AVC
    Duration                    : 57 min 11 s
    Bit rate mode               : Variable
    Bit rate                    : 20.5 Mb/s
    Maximum bit rate            : 40.0 Mb/s
    Width                       : 1 920 pixels
    Height                      : 1 080 pixels
    Display aspect ratio        : 16:9
    Frame rate mode             : Constant
    Frame rate                  : 23.976 (24000/1001) FPS
    Color space                 : YUV
    Chroma subsampling          : 4:2:0
    Bit depth                   : 8 bits
    Scan type                   : Progressive
    Bits/(Pixel*Frame)          : 0.413
    Stream size                 : 8.19 GiB (84%)
    Default                     : Yes
    Forced                      : No
    Color range                 : Limited
    Color primaries             : BT.709
    Transfer characteristics    : BT.709
    Matrix coefficients         : BT.709
    Audio
    ID                          : 2
    Format                      : DTS XLL
    Format/Info                 : Digital Theater Systems
    Commercial name             : DTS-HD Master Audio
    Codec ID                    : A_DTS
    Duration                    : 57 min 11 s
    Bit rate mode               : Variable
    Bit rate                    : 3 881 kb/s
    Channel(s)                  : 6 channels
    Channel layout              : C L R Ls Rs LFE
    Sampling rate               : 48.0 kHz
    Frame rate                  : 93.750 FPS (512 SPF)
    Bit depth                   : 24 bits
    Compression mode            : Lossless
    Stream size                 : 1.55 GiB (16%)
    Title                       : DTS-HD MA 5.1
    Language                    : English
    Default                     : Yes
    Forced                      : No
    Text #1
    ID                          : 3
    Format                      : PGS
    Muxing mode                 : zlib
    Codec ID                    : S_HDMV/PGS
    Codec ID/Info               : Picture based subtitle format used on BDs/HD-DVDs
    Duration                    : 56 min 16 s
    Bit rate                    : 54.2 kb/s
    Count of elements           : 1548
    Stream size                 : 21.8 MiB (0%)
    Title                       : English (SDH)
    Language                    : English
    Default                     : No
    Forced                      : No
    Text #2
    ID                          : 4
    Format                      : PGS
    Muxing mode                 : zlib
    Codec ID                    : S_HDMV/PGS
    Codec ID/Info               : Picture based subtitle format used on BDs/HD-DVDs
    Duration                    : 56 min 3 s
    Bit rate                    : 44.9 kb/s
    Count of elements           : 1228
    Stream size                 : 18.0 MiB (0%)
    Title                       : Spanish (Latin American)
    Language                    : Spanish
    Default                     : No
    Forced                      : No
    Text #3
    ID                          : 5
    Format                      : PGS
    Muxing mode                 : zlib
    Codec ID                    : S_HDMV/PGS
    Codec ID/Info               : Picture based subtitle format used on BDs/HD-DVDs
    Duration                    : 56 min 3 s
    Bit rate                    : 48.9 kb/s
    Count of elements           : 1256
    Stream size                 : 19.6 MiB (0%)
    Title                       : French
    Language                    : French
    Default                     : No
    Forced                      : No
    Text #4
    ID                          : 6
    Format                      : UTF-8
    Codec ID                    : S_TEXT/UTF8
    Codec ID/Info               : UTF-8 Plain Text
    Duration                    : 55 min 19 s
    Bit rate                    : 73 b/s
    Count of elements           : 625
    Stream size                 : 29.6 KiB (0%)
    Language                    : Vietnamese
    Default                     : Yes
    Forced                      : No
    Menu
    00:00:00.000                : en:00:00:00.000
    00:06:21.298                : en:00:06:21.298
    00:10:26.125                : en:00:10:26.125
    00:15:22.588                : en:00:15:22.588
    00:18:58.637                : en:00:18:58.637
    00:23:41.629                : en:00:23:41.629
    00:27:28.230                : en:00:27:28.230
    00:34:25.063                : en:00:34:25.063
    00:37:46.431                : en:00:37:46.431
    00:40:46.444                : en:00:40:46.444
    00:45:04.076                : en:00:45:04.076
    00:50:27.024                : en:00:50:27.024
    SCREENSHOT
    [​IMG]
    DOWNLOAD
    Đã Hoàn Thành: 07 Season/ 07 Season.
    Chúc các bạn xem phim vui vẻ.

     
    Chỉnh sửa cuối: 8/9/21
  2. thanhfuta

    thanhfuta Active Member

    Tham gia ngày:
    30/8/10
    Bài viết:
    385
    Đã được cảm ơn:
    192
    Giới tính:
    Nam
    cám ơn bác
     
  3. riacteo

    riacteo Active Member

    Tham gia ngày:
    7/10/18
    Bài viết:
    148
    Đã được cảm ơn:
    80
    Giới tính:
    Nam
    Mình rất thích bộ này nhưng chỉ dám đứng xa mà nhìn thôi ! Nếu bạn có files nhe nhàng hơn thì cho mình xin .
     
  4. tremocoivo

    tremocoivo Well-Known Member

    Tham gia ngày:
    25/2/10
    Bài viết:
    1,576
    Đã được cảm ơn:
    52,141
    Giới tính:
    Nam
    UPDATE SEASON 04
     
    huuhieu2110, Đắc Trung and ahipsa like this.
  5. tremocoivo

    tremocoivo Well-Known Member

    Tham gia ngày:
    25/2/10
    Bài viết:
    1,576
    Đã được cảm ơn:
    52,141
    Giới tính:
    Nam
    UPDATE SEASON 05
     
    huuhieu2110 and Đắc Trung like this.
  6. tremocoivo

    tremocoivo Well-Known Member

    Tham gia ngày:
    25/2/10
    Bài viết:
    1,576
    Đã được cảm ơn:
    52,141
    Giới tính:
    Nam
    UPDATE SEASON 06
     
    huuhieu2110 and Đắc Trung like this.
  7. ahipsa

    ahipsa Well-Known Member

    Tham gia ngày:
    24/2/19
    Bài viết:
    2,008
    Đã được cảm ơn:
    1,455
    Giới tính:
    Nam
    Nghề nghiệp:
    SINH VIÊN
    Nơi ở:
    BÌNH DƯƠNG
    Đã tải xong 6 seasons, chờ bác update thêm S07 ạ :D
     
  8. tieubao64

    tieubao64 Well-Known Member

    Tham gia ngày:
    19/10/10
    Bài viết:
    958
    Đã được cảm ơn:
    341
    Chờ bạn up đủ 7 season rồi kiếm acc vip down 1 ngày, chứ acc free mà down thì không nổi (file trên 5gb nó cho down 50kb/s). Thanks
     
  9. tremocoivo

    tremocoivo Well-Known Member

    Tham gia ngày:
    25/2/10
    Bài viết:
    1,576
    Đã được cảm ơn:
    52,141
    Giới tính:
    Nam
    Đang Upload Season 07 nha.
    Acc Vip thì 1 ngày cũng chỉ 150GB. Mà mỗi season cũng đã hơn 100GB rồi. Chắc cắm máy 2,3 ngày mới xong á hĩ.
     
    tieubao64, Đắc Trung and ahipsa like this.
  10. tremocoivo

    tremocoivo Well-Known Member

    Tham gia ngày:
    25/2/10
    Bài viết:
    1,576
    Đã được cảm ơn:
    52,141
    Giới tính:
    Nam
    UPDATE SEASON 07
     
    ahipsa cảm ơn bài này.
  11. tieubao64

    tieubao64 Well-Known Member

    Tham gia ngày:
    19/10/10
    Bài viết:
    958
    Đã được cảm ơn:
    341
    Bạn có acc vip down bằng IDM. Bạn cài IDM phần connection =1 (thông thường là 8, làm như vậy để khi down xong khỏi phải rebuilding dễ làm đứng máy). Sau đó bạn lần lượt add các file cần down và cho down liền (đừng để down later). Như vậy bạn down bao nhiêu gb cũng được. Vì vậy bạn phải đánh dấu tất cả các file cần down và liên tục add vô down, nếu bạn add vài chục file (có tổng dung lượng >150) rồi bận việc đi, sau đó quay lại add tiếp thì các file sau nó cho down với tốc độ thường. Mình thử nhiều lần mới tìm được cách đó
     
  12. Nguyễn Đào Hiểu Ân

    Nguyễn Đào Hiểu Ân Active Member

    Tham gia ngày:
    21/11/18
    Bài viết:
    68
    Đã được cảm ơn:
    31
    Giới tính:
    Nam
    Down như thế là mạng phải rất ngon kèm theo đó là ảnh hưởng rất nhiều đến những người khác đang xài nữa, nếu mạng ko ngon tèo giữa chừng thì mất công resume hoặc phải down lại từ đầu luôn, ổ cứng phải nạp nhiều nguồn file liên tục nên tuổi thọ sẽ giảm nhanh hơn so với bình thường, rất là mệt trong khi 1 ngày vip có 1k (dc 200GB down rồi), mình thì lấy 1 lượt 10 11 link rồi cho chúng down lần lượt, qua ngày down tiếp hoặc muốn nhanh thì chuyển point qua acc khác, down lần lượt rất chắc cú
     
    tieubao64 cảm ơn bài này.
  13. tieubao64

    tieubao64 Well-Known Member

    Tham gia ngày:
    19/10/10
    Bài viết:
    958
    Đã được cảm ơn:
    341
    Vì bạn có thể mua acc vip nhiều ngày, chứ mình lâu lâu mới có acc vip 1 ngày thì tranh thủ down. Nhà nghèo nên phải vậy, kkk
     
  14. YuenBiao

    YuenBiao Well-Known Member

    Tham gia ngày:
    16/1/17
    Bài viết:
    28
    Đã được cảm ơn:
    512
    hàng ngon đây rồi
     
  15. Đắc Trung

    Đắc Trung Well-Known Member

    Tham gia ngày:
    6/5/17
    Bài viết:
    666
    Đã được cảm ơn:
    978
    Cám ơn bác. Nhưng em đang downlaod đến S02 thì tập 13 không tải được ạ. Nhờ Bác fix giùm với.
     
  16. Đắc Trung

    Đắc Trung Well-Known Member

    Tham gia ngày:
    6/5/17
    Bài viết:
    666
    Đã được cảm ơn:
    978
    Cám ơn bác. Mình tải được rồi.
     
  17. thanhyk

    thanhyk Well-Known Member

    Tham gia ngày:
    24/1/09
    Bài viết:
    5,230
    Đã được cảm ơn:
    735
    S04 tập 6 bác nào có reup giúp ạ. Tks
     
  18. thanhyk

    thanhyk Well-Known Member

    Tham gia ngày:
    24/1/09
    Bài viết:
    5,230
    Đã được cảm ơn:
    735
    S04 tập 8 nữa bác ui..
     
  19. thanhyk

    thanhyk Well-Known Member

    Tham gia ngày:
    24/1/09
    Bài viết:
    5,230
    Đã được cảm ơn:
    735
    S07E01 cũng mất rùi ạ.
     
    Chỉnh sửa cuối: 26/4/21
  20. tangle

    tangle Member

    Tham gia ngày:
    13/3/11
    Bài viết:
    157
    Đã được cảm ơn:
    5
    S01 thiếu E01 đến E06 bác ơi
     

Chia sẻ trang này