[MULTI] Rồng Nam Phượng Bắc - Kungfu Master From Guangdong 20/20 USLT

Thảo luận trong 'mHD, SD' bắt đầu bởi kunngoc, 21/9/12.

  1. kunngoc

    kunngoc Well-Known Member

    Tham gia ngày:
    8/6/09
    Bài viết:
    4,552
    Đã được cảm ơn:
    5,265
    Rồng Nam Phượng Bắc - Kungfu Master From Guangdong 20/20 USLT


    [​IMG]

    [​IMG]
    Mã:
    General
    
    
    	

    Complete name : D:\20_Rong Nam Phuong Bac_kunngoc_hdvn.avi

    Format : AVI Format/Info : Audio Video Interleave File size : 475 MiB Duration : 44mn 49s Overall bit rate : 1 481 Kbps Video ID : 0 Format : AVC Format/Info : Advanced Video Codec Format profile : [email protected] Format settings, CABAC : Yes Format settings, ReFrames : 2 frames Codec ID : H264 Duration : 44mn 49s Bit rate : 1 271 Kbps Width : 640 pixels Height : 480 pixels Display aspect ratio : 4:3 Frame rate : 25.000 fps Color space : YUV Chroma subsampling : 4:2:0 Bit depth : 8 bits Scan type : Progressive Bits/(Pixel*Frame) : 0.165 Stream size : 410 MiB (86%) Writing library : x264 core 56 Encoding settings : cabac=1 / ref=1 / deblock=1:0:0 / analyse=0x3:0x113 / me=hex / subme=5 / brdo=0 / mixed_ref=0 / me_range=16 / chroma_me=1 / trellis=0 / 8x8dct=1 / cqm=0 / deadzone=21,11 / chroma_qp_offset=0 / threads=6 / nr=0 / decimate=1 / mbaff=0 / bframes=2 / b_pyramid=0 / b_adapt=1 / b_bias=0 / direct=1 / wpredb=1 / bime=0 / keyint=250 / keyint_min=25 / scenecut=40(pre) / rc=abr / bitrate=1271 / ratetol=1.0 / rceq='blurCplx^(1-qComp)' / qcomp=0.60 / qpmin=10 / qpmax=51 / qpstep=4 / ip_ratio=1.40 / pb_ratio=1.30 Audio ID : 1 Format : MPEG Audio Format version : Version 1 Format profile : Layer 3 Mode : Joint stereo Mode extension : MS Stereo Codec ID : 55 Codec ID/Hint : MP3 Duration : 44mn 48s Source duration : 44mn 48s Bit rate mode : Constant Bit rate : 192 Kbps Channel(s) : 2 channels Sampling rate : 44.1 KHz Compression mode : Lossy Stream size : 61.5 MiB (13%) Alignment : Aligned on interleaves Interleave, duration : 40 ms (1.00 video frame)
    [​IMG]
    [​IMG]

    [​IMG]

    [​IMG]
    Link tải phim
    Nhấn nút Cảm ơn (dưới chân bài) để thấy link!


    [​IMG]
    Link tải phim
    Nhấn nút Cảm ơn (dưới chân bài) để thấy link!
     
  2. kunngoc

    kunngoc Well-Known Member

    Tham gia ngày:
    8/6/09
    Bài viết:
    4,552
    Đã được cảm ơn:
    5,265
    Ðề: Rồng Nam Phượng Bắc - Kungfu Master From Guangdong 20/20 USLT

    Phim do thành viên therain nhờ mình chuyển qua Fshare, nhân tiện gửi sang đây bác nào cần thì xúc >:)>:)>:)
     
  3. cundoi_ls

    cundoi_ls New Member

    Tham gia ngày:
    11/6/12
    Bài viết:
    50
    Đã được cảm ơn:
    3
    Ðề: Rồng Nam Phượng Bắc - Kungfu Master From Guangdong 20/20 USLT

    phim cũ mà hay, cảm ơn các bác.
     
  4. therain

    therain Well-Known Member

    Tham gia ngày:
    19/5/09
    Bài viết:
    1,469
    Đã được cảm ơn:
    12,300
    Giới tính:
    Nam
    Ðề: Rồng Nam Phượng Bắc - Kungfu Master From Guangdong 20/20 USLT

    thanks bác kunngoc rất nhiều .
     
  5. imsofa

    imsofa Well-Known Member

    Tham gia ngày:
    10/2/11
    Bài viết:
    418
    Đã được cảm ơn:
    1,388
    Ðề: Rồng Nam Phượng Bắc - Kungfu Master From Guangdong 20/20 USLT

    bac therain up lai phim nay giup dc ko? thanks bac
     
  6. Tigermoon85

    Tigermoon85 Active Member

    Tham gia ngày:
    17/10/09
    Bài viết:
    205
    Đã được cảm ơn:
    51
    Ðề: Rồng Nam Phượng Bắc - Kungfu Master From Guangdong 20/20 USLT

    =D> tự nhiên bạn đào mộ, mới biết là mình chưa xem phim này, :D bạn nào reup lại giúp với
     
  7. angiesmith

    angiesmith Member

    Tham gia ngày:
    12/10/12
    Bài viết:
    122
    Đã được cảm ơn:
    26
    bạn nào reup lại giúp với
     

Chia sẻ trang này