[Fshare] Poldark Complete Series 1080p 10bit BluRay DTS 5.1 x265 HEVC-H72 ~ Thuyền Trưởng Poldark (Vietsub)

Thảo luận trong 'Phim bộ - Series' bắt đầu bởi tremocoivo, 19/7/20.

  1. tremocoivo

    tremocoivo Well-Known Member

    Tham gia ngày:
    25/2/10
    Bài viết:
    1,592
    Đã được cảm ơn:
    52,431
    Giới tính:
    Nam

    Thuyền Trưởng Poldark (2015-2019) - Trọn Bộ 5 Phần
    Poldark Complete Series 1080p BluRay DTS 5.1 10bit x265 HEVC-H72 {Sub Việt Mux Sẵn}

    [​IMG]
    [​IMG]
    https://www.imdb.com/title/tt3636060

    Được chuyển thể từ bộ tiểu thuyết cùng tên của nhà văn Winston Graham, Poldark lấy bối cảnh miền nam nước Anh vào thế kỷ 18. Để thoát khỏi giá treo cổ, Ross Poldark đã gia nhập quân đội Hoàng Gia Anh. May mắn sống sót trở về quê hương Cornwall sau ba năm trời đi chinh chiến, anh hay tin cha đã qua đời, gia tài nhà anh kiệt quệ, còn người tình cũ là Elizabeth thì chuẩn bị kết hôn với người em họ Francis. Trắng tay, anh có chút thất vọng song anh không hề tuyệt vọng. Một mình chống chọi với mọi khủng hoảng, Ross Poldark quyết gầy dựng lại cơ nghiệp của cha mình mà không một xu dính túi.

    Trong một phiên chợ, anh gặp gỡ và cứu giúp Demelza, một cô bé đầu đường xó chợ bị cha và các anh em hành hạ, hắt hủi về làm phụ bếp. Cùng lúc đó, anh cũng ra tay giúp đỡ người dân trong làng và tìm cách bảo vệ những quặng mỏ đang bị đối thủ của anh, tên George Warleggan tham lam và ngạo mạn, lăm le chiếm lấy. Cuộc đời của Poldark như được tô vẽ thêm hàng loạt bức tranh mới, đầy mầu sắc nhưng cũng đầy thử thách, chông gai.

    Phim phù hợp với những bạn yêu thích sự phiêu lưu mạo hiểm, thích những tình huống gần như là chết 100% rồi nhưng tới những giây cuối thì mọi tình thế bị lật ngược một cách hoàn hảo. Không dừng lại ở đó, trong Poldark còn là những chuyện tình đan xen tay ba, tay bốn nhưng trọng tâm vẫn là chuyện tình giữa Poldark – Demelza, Elizabeth – Charles với vô vàn bất ngờ, hạnh phúc, khổ đau, ngọt ngào, say đắm.

    Sở hữu cốt truyện cuốn hút là điều không cần phải bàn cãi, song đó chưa phải là tất cả sự cuốn hút mà đạo diễn Edward Bazalgette đem đến. Ấn tượng của phim nhất định phải nhắc đến là âm nhạc và bối cảnh. Những góc quay hùng vĩ khiến bối cảnh phim hiện lên rất đẹp. Bờ biển Cornwall hiện lên như tranh vẽ với những bãi cỏ dày xanh mát, những chú ngựa, người thợ mỏ, quý ông, quý bà xúng xính váy áo đậm chất Anh quốc thế kỷ 18, những làng quê yên bình, bãi biển xanh ngắt vịnh Nampar. Màu sắc trong phim đôi khi u ám nhưng lại có lúc chan hòa nắng hè ấm áp, thật sự rất kích thích và nghệ thuật.

    Poldark S01 1080p 10bit BluRay DTS 2.0 x265 HEVC-H72
    Mã:
    General
    Complete name  : Poldark.2015.S01E01.1080p.BluRay.x265-H72.mkv
    Format  : Matroska
    Format version  : Version 4
    File size  : 2.76 GiB
    Duration  : 1 h 1 min
    Overall bit rate  : 6 467 kb/s
    Movie name  : Poldark.2015.S01E01.1080p.BluRay.x265-H72
    Encoded date  : UTC 2020-05-12 11:09:58
    Writing application  : mkvmerge v46.0.0 ('No Deeper Escape') 64-bit
    Writing library  : libebml v1.3.10 + libmatroska v1.5.2
    Video
    ID  : 1
    Format  : HEVC
    Format/Info  : High Efficiency Video Coding
    Format profile  : Main [email protected]@Main
    Codec ID  : V_MPEGH/ISO/HEVC
    Duration  : 1 h 1 min
    Bit rate  : 4 938 kb/s
    Width  : 1 920 pixels
    Height  : 1 080 pixels
    Display aspect ratio  : 16:9
    Frame rate mode  : Constant
    Frame rate  : 23.976 (24000/1001) FPS
    Color space  : YUV
    Chroma subsampling  : 4:2:0
    Bit depth  : 10 bits
    Bits/(Pixel*Frame)  : 0.099
    Stream size  : 2.11 GiB (76%)
    Default  : Yes
    Forced  : No
    Color range  : Limited
    Color primaries  : BT.709
    Transfer characteristics  : BT.709
    Matrix coefficients  : BT.709
    Audio
    ID  : 2
    Format  : DTS
    Format/Info  : Digital Theater Systems
    Codec ID  : A_DTS
    Duration  : 1 h 1 min
    Bit rate mode  : Constant
    Bit rate  : 1 509 kb/s
    Channel(s)  : 2 channels
    Channel layout  : L R
    Sampling rate  : 48.0 kHz
    Frame rate  : 93.750 FPS (512 SPF)
    Bit depth  : 24 bits
    Compression mode  : Lossy
    Stream size  : 660 MiB (23%)
    Language  : English
    Default  : Yes
    Forced  : No
    Text
    ID  : 3
    Format  : PGS
    Muxing mode  : zlib
    Codec ID  : S_HDMV/PGS
    Codec ID/Info  : Picture based subtitle format used on BDs/HD-DVDs
    Duration  : 59 min 55 s
    Bit rate  : 39.4 kb/s
    Count of elements  : 1432
    Stream size  : 16.9 MiB (1%)
    Language  : Vietnamese
    Default  : Yes
    Forced  : Yes
    

    Poldark S02-S03 1080p 10bit BluRay DD 2.0 x265 HEVC-H72
    Mã:
    General
    Complete name  : Poldark.2015.S02E01.1080p.BluRay.x265-H72.mkv
    Format  : Matroska
    Format version  : Version 4
    File size  : 2.34 GiB
    Duration  : 57 min 16 s
    Overall bit rate  : 5 848 kb/s
    Movie name  : Poldark.2015.S02E01.1080p.BluRay.x265-H72
    Encoded date  : UTC 2020-05-12 12:17:46
    Writing application  : mkvmerge v46.0.0 ('No Deeper Escape') 64-bit
    Writing library  : libebml v1.3.10 + libmatroska v1.5.2
    Video
    ID  : 1
    Format  : HEVC
    Format/Info  : High Efficiency Video Coding
    Format profile  : Main [email protected]@Main
    Codec ID  : V_MPEGH/ISO/HEVC
    Duration  : 57 min 16 s
    Bit rate  : 5 185 kb/s
    Width  : 1 920 pixels
    Height  : 1 080 pixels
    Display aspect ratio  : 16:9
    Frame rate mode  : Constant
    Frame rate  : 25.000 FPS
    Color space  : YUV
    Chroma subsampling  : 4:2:0
    Bit depth  : 10 bits
    Bits/(Pixel*Frame)  : 0.100
    Stream size  : 2.07 GiB (89%)
    Default  : Yes
    Forced  : No
    Color range  : Limited
    Color primaries  : BT.709
    Transfer characteristics  : BT.709
    Matrix coefficients  : BT.709
    Audio
    ID  : 2
    Format  : AC-3
    Format/Info  : Audio Coding 3
    Commercial name  : Dolby Digital
    Codec ID  : A_AC3
    Duration  : 57 min 16 s
    Bit rate mode  : Constant
    Bit rate  : 640 kb/s
    Channel(s)  : 2 channels
    Channel layout  : L R
    Sampling rate  : 48.0 kHz
    Frame rate  : 31.250 FPS (1536 SPF)
    Compression mode  : Lossy
    Stream size  : 262 MiB (11%)
    Language  : English
    Service kind  : Complete Main
    Default  : Yes
    Forced  : No
    Text
    ID  : 3
    Format  : PGS
    Muxing mode  : zlib
    Codec ID  : S_HDMV/PGS
    Codec ID/Info  : Picture based subtitle format used on BDs/HD-DVDs
    Duration  : 55 min 12 s
    Bit rate  : 49.5 kb/s
    Count of elements  : 1224
    Stream size  : 19.5 MiB (1%)
    Language  : Vietnamese
    Default  : Yes
    Forced  : Yes
    

    Poldark S04-S05 1080p 10bit BluRay DTS 5.1 x265 HEVC-H72
    Mã:
    General
    Complete name  : \\192.168.123.111\lossless\PolDark (2015)\SEASON 04\Poldark.2015.S04E01.1080p.BluRay.x265-H72.mkv
    Format  : Matroska
    Format version  : Version 4
    File size  : 2.77 GiB
    Duration  : 59 min 24 s
    Overall bit rate  : 6 675 kb/s
    Movie name  : Poldark.2015.S04E01.1080p.BluRay.x265-H72
    Encoded date  : UTC 2020-05-16 13:52:27
    Writing application  : mkvmerge v46.0.0 ('No Deeper Escape') 64-bit
    Writing library  : libebml v1.3.10 + libmatroska v1.5.2
    Video
    ID  : 1
    Format  : HEVC
    Format/Info  : High Efficiency Video Coding
    Format profile  : Main [email protected]@Main
    Codec ID  : V_MPEGH/ISO/HEVC
    Duration  : 59 min 24 s
    Bit rate  : 5 148 kb/s
    Width  : 1 920 pixels
    Height  : 1 080 pixels
    Display aspect ratio  : 16:9
    Frame rate mode  : Constant
    Frame rate  : 25.000 FPS
    Color space  : YUV
    Chroma subsampling  : 4:2:0
    Bit depth  : 10 bits
    Bits/(Pixel*Frame)  : 0.099
    Stream size  : 2.14 GiB (77%)
    Default  : Yes
    Forced  : No
    Color range  : Limited
    Color primaries  : BT.709
    Transfer characteristics  : BT.709
    Matrix coefficients  : BT.709
    Audio
    ID  : 2
    Format  : DTS
    Format/Info  : Digital Theater Systems
    Codec ID  : A_DTS
    Duration  : 59 min 24 s
    Bit rate mode  : Constant
    Bit rate  : 1 509 kb/s
    Channel(s)  : 6 channels
    Channel layout  : C L R Ls Rs LFE
    Sampling rate  : 48.0 kHz
    Frame rate  : 93.750 FPS (512 SPF)
    Bit depth  : 24 bits
    Compression mode  : Lossy
    Stream size  : 641 MiB (23%)
    Language  : English
    Default  : Yes
    Forced  : No
    Text
    ID  : 3
    Format  : PGS
    Muxing mode  : zlib
    Codec ID  : S_HDMV/PGS
    Codec ID/Info  : Picture based subtitle format used on BDs/HD-DVDs
    Duration  : 58 min 11 s
    Bit rate  : 36.2 kb/s
    Count of elements  : 1248
    Stream size  : 15.0 MiB (1%)
    Language  : Vietnamese
    Default  : Yes
    Forced  : Yes
    Menu
    00:00:00.000  : en:00:00:00.000
    00:15:16.880  : en:00:15:16.880
    00:30:43.360  : en:00:30:43.360
    00:45:18.160  : en:00:45:18.160
    

    DOWNLOAD TRỌN BỘ
     
    Chỉnh sửa cuối: 19/7/20
  2. quatangvietbook12

    quatangvietbook12 New Member

    Tham gia ngày:
    5/7/20
    Bài viết:
    14
    Đã được cảm ơn:
    4
    Giới tính:
    Nam
  3. ahipsa

    ahipsa Well-Known Member

    Tham gia ngày:
    24/2/19
    Bài viết:
    2,008
    Đã được cảm ơn:
    1,455
    Giới tính:
    Nam
    Nghề nghiệp:
    SINH VIÊN
    Nơi ở:
    BÌNH DƯƠNG
    Cảm ơn <3
     
  4. nhvu02

    nhvu02 New Member

    Tham gia ngày:
    17/4/10
    Bài viết:
    21
    Đã được cảm ơn:
    8
    Mong Ivy's Papa làm sub, phim này cực hay, mình xem đc 3 mùa, không tìm được sub nữa huhu.
     
    Hoangmailc1993 cảm ơn bài này.
  5. tremocoivo

    tremocoivo Well-Known Member

    Tham gia ngày:
    25/2/10
    Bài viết:
    1,592
    Đã được cảm ơn:
    52,431
    Giới tính:
    Nam
    Ủa ủa, tiêu đề có ghi Complete Series (Vietsub) kìa bạn.
     
    nhvu02 cảm ơn bài này.
  6. hphuc92

    hphuc92 Well-Known Member

    Tham gia ngày:
    8/8/13
    Bài viết:
    209
    Đã được cảm ơn:
    703
    Giới tính:
    Nam
    Die hết trơn rồi, phiền bác reup với.
     
  7. phmy

    phmy New Member

    Tham gia ngày:
    22/2/09
    Bài viết:
    12
    Đã được cảm ơn:
    0
    Vui lòng reup lại, cảm ơn
     
  8. nhvu02

    nhvu02 New Member

    Tham gia ngày:
    17/4/10
    Bài viết:
    21
    Đã được cảm ơn:
    8
    Link die rồi buồn quá!! up lại giúp bạn Tremocoivo ơi, cám ơn.
     
  9. Pi chan

    Pi chan Active Member

    Tham gia ngày:
    17/7/12
    Bài viết:
    207
    Đã được cảm ơn:
    181
    Bạn chủ thread có thể reup bộ này không? Mình cảm ơn.
     
  10. vietnamdragon76

    vietnamdragon76 Member

    Tham gia ngày:
    8/4/11
    Bài viết:
    103
    Đã được cảm ơn:
    13
    Bác nào giúp reup với
     
  11. nhvu02

    nhvu02 New Member

    Tham gia ngày:
    17/4/10
    Bài viết:
    21
    Đã được cảm ơn:
    8
    Pls re-upload, thanks.
     
  12. tremocoivo

    tremocoivo Well-Known Member

    Tham gia ngày:
    25/2/10
    Bài viết:
    1,592
    Đã được cảm ơn:
    52,431
    Giới tính:
    Nam
    Đã REUP nhé.
     
    Pi chan cảm ơn bài này.
  13. boyp

    boyp Active Member

    Tham gia ngày:
    11/6/10
    Bài viết:
    312
    Đã được cảm ơn:
    50
    Bác ơi S04E06 bị lỗi mất rồi. Bác có thể up lại đc ko? Cảm ơn bác @tremocoivo
     
  14. tremocoivo

    tremocoivo Well-Known Member

    Tham gia ngày:
    25/2/10
    Bài viết:
    1,592
    Đã được cảm ơn:
    52,431
    Giới tính:
    Nam
    Này do server Fshare thôi bạn. Tải lúc khác sẽ được.
     
  15. nhvu02

    nhvu02 New Member

    Tham gia ngày:
    17/4/10
    Bài viết:
    21
    Đã được cảm ơn:
    8
    Cám ơn bạn Tremocoivo thật nhiều vì đã reup.
     

Chia sẻ trang này