[Phiêu Lưu] Rons Gone Wrong 2021 720p BluRay x264 DTS-MT

Thảo luận trong 'Fshare.vn' bắt đầu bởi xemaydinh, 15/12/21.

  1. xemaydinh

    xemaydinh Tem

    Tham gia ngày:
    3/7/10
    Bài viết:
    36,029
    Đã được cảm ơn:
    190,851
    Rons Gone Wrong 2021 720p BluRay x264 DTS-MT

    Ron - Chú Robot khác biệt

    [​IMG]


    Lấy bối cảnh ở một thế giới nơi những chú robot có thể đi đứng, nói chuyện, kết nối kỹ thuật số và đã trở thành bạn thân của trẻ em, Ron - Chú Robot Khác Biệt kể về câu chuyện của một cậu bé 11 tuổi nhận thấy rằng người bạn robot của mình hoạt động không như bình thường. Cậu cố gắng hướng dẫn chú robot nhưng tất cả dường như trở thành một cuộc trải nghiệm đầy hài hước, ấm áp và đầy ý nghĩa về tình bạn trong thế giới chỉ có thuật toán và mạng xã hội.



    Video
    ID : 1
    Format : AVC
    Format/Info : Advanced Video Codec
    Format profile : [email protected]
    Format settings : CABAC / 12 Ref Frames
    Format settings, CABAC : Yes
    Format settings, Reference frames : 12 frames
    Codec ID : V_MPEG4/ISO/AVC
    Duration : 1 h 46 min
    Bit rate : 3 730 kb/s
    Width : 1 280 pixels
    Height : 536 pixels
    Display aspect ratio : 2.40:1
    Frame rate mode : Constant
    Frame rate : 23.976 (24000/1001) FPS
    Color space : YUV
    Chroma subsampling : 4:2:0
    Bit depth : 8 bits
    Scan type : Progressive
    Bits/(Pixel*Frame) : 0.227
    Stream size : 2.78 GiB (71%)
    Writing library : x264 core 157 r2938 2b00a84 [email protected] Mod
    Encoding settings : cabac=1 / ref=12 / deblock=1:-3:-3 / analyse=0x3:0x133 / me=umh / subme=10 / psy=1 / psy_rd=1.05:0.00 / mixed_ref=1 / me_range=32 / chroma_me=1 / trellis=2 / 8x8dct=1 / cqm=0 / deadzone=21,11 / fast_pskip=0 / chroma_qp_offset=-2 / threads=12 / lookahead_threads=2 / sliced_threads=0 / nr=0 / decimate=0 / interlaced=0 / bluray_compat=0 / constrained_intra=0 / bframes=8 / b_pyramid=2 / b_adapt=2 / b_bias=0 / direct=3 / weightb=1 / open_gop=0 / weightp=2 / keyint=250 / keyint_min=24 / scenecut=40 / intra_refresh=0 / rc_lookahead=250 / rc=crf / mbtree=0 / crf=16.8 / qcomp=0.60 / qpmin=0 / qpmax=69 / qpstep=4 / vbv_maxrate=62500 / vbv_bufsize=78125 / crf_max=0.0 / nal_hrd=none / filler=0 / ip_ratio=1.30 / pb_ratio=1.20 / aq=3:0.80
    Language : English
    Default : Yes
    Forced : No
    Color range : Limited
    Color primaries : BT.709
    Matrix coefficients : BT.709

    Audio
    ID : 2
    Format : DTS
    Format/Info : Digital Theater Systems
    Codec ID : A_DTS
    Duration : 1 h 46 min
    Bit rate mode : Constant
    Bit rate : 1 509 kb/s
    Channel(s) : 6 channels
    Channel layout : C L R Ls Rs LFE
    Sampling rate : 48.0 kHz
    Frame rate : 93.750 FPS (512 SPF)
    Bit depth : 24 bits
    Compression mode : Lossy
    Stream size : 1.13 GiB (29%)
    Language : English
    Default : Yes
    Forced : No

    Text
    ID : 3
    Format : UTF-8
    Codec ID : S_TEXT/UTF8
    Codec ID/Info : UTF-8 Plain Text
    Duration : 1 h 39 min
    Bit rate : 77 b/s
    Count of elements : 1970
    Stream size : 56.2 KiB (0%)
    Language : English
    Default : Yes
    Forced : No

    Menu
    00:00:00.000 : en:Chapter 01
    00:07:58.520 : en:Chapter 02
    00:14:35.416 : en:Chapter 03
    00:21:32.750 : en:Chapter 04
    00:29:58.296 : en:Chapter 05
    00:35:12.277 : en:Chapter 06
    00:40:05.111 : en:Chapter 07
    00:45:50.081 : en:Chapter 08
    00:52:35.694 : en:Chapter 09
    00:58:08.276 : en:Chapter 10
    01:04:16.186 : en:Chapter 11
    01:11:24.155 : en:Chapter 12
    01:19:45.364 : en:Chapter 13
    01:23:37.221 : en:Chapter 14
    01:28:54.663 : en:Chapter 15
    01:32:59.282 : en:Chapter 16
    01:37:36.350 : en:Chapter 17
    01:40:03.998 : en:Chapter 18


    [​IMG][​IMG][​IMG][​IMG][​IMG][​IMG]

    Fshare ~ 3.91GB

    Nhấn nút Cảm ơn (dưới chân bài) để thấy link!


    4Share
    Nhấn nút Cảm ơn (dưới chân bài) để thấy link!



    Sub Việt

    https://subscene.com/subtitles/rons-gone-wrong

    Tổng hợp phim 18+
    Nhấn nút Cảm ơn (dưới chân bài) để thấy link!

    Tổng hợp phim full Menu (Thuyết minh+Sub Việt) bluray (nethd.org)
    Nhấn nút Cảm ơn (dưới chân bài) để thấy link!

    Tổng hợp phim bộ Lồng tiếng, thuyết minh, sub việt
    Nhấn nút Cảm ơn (dưới chân bài) để thấy link!

    Tổng hợp phim bluray Remux ISO 4K





    mhd

    720p https://www.hdvietnam.com/threads/phieu-luu-rons-gone-wrong-2021-720p-bluray-x264-dts-mt.1743817/

    1080p https://www.hdvietnam.com/threads/p...-2021-1080p-bluray-dd-7-1-x264-tayto.1742955/

    4K https://www.hdvietnam.com/threads/4...1-2160p-uhd-x265-10bit-hdr-muhd-frds.1743818/

    Lồng tiếng https://hdvietnam.com/threads/phieu-luu-rons-gone-wrong-2021-vie-all-bluray-long-tieng.1762193/

    REmux https://hdvietnam.com/threads/phieu...bluray-hybrid-remux-avc-atmos-triton.1762194/

    Remux 4K https://www.hdvietnam.com/threads/r...160p-hevc-atmos-truehd7-1-ron-chu-ro.1741228/

    ISO 4K https://www.hdvietnam.com/threads/i...evc-atmos-truehd7-1-mteam-ron-chu-ro.1741227/

    ISO https://www.hdvietnam.com/threads/i...p-avc-dts-hd-ma-7-1-mteam-ron-chu-ro.1741229/
     
    Chỉnh sửa cuối: 17/2/22
    toyosg, Crem, tayvtn and 11 others like this.
  2. xemaydinh

    xemaydinh Tem

    Tham gia ngày:
    3/7/10
    Bài viết:
    36,029
    Đã được cảm ơn:
    190,851
  3. xemaydinh

    xemaydinh Tem

    Tham gia ngày:
    3/7/10
    Bài viết:
    36,029
    Đã được cảm ơn:
    190,851
    Rons Gone Wrong 2021 ViE 720p BluRay x264 DTS-MT

    Ron - Chú Robot khác biệt

    [​IMG]


    Lấy bối cảnh ở một thế giới nơi những chú robot có thể đi đứng, nói chuyện, kết nối kỹ thuật số và đã trở thành bạn thân của trẻ em, Ron - Chú Robot Khác Biệt kể về câu chuyện của một cậu bé 11 tuổi nhận thấy rằng người bạn robot của mình hoạt động không như bình thường. Cậu cố gắng hướng dẫn chú robot nhưng tất cả dường như trở thành một cuộc trải nghiệm đầy hài hước, ấm áp và đầy ý nghĩa về tình bạn trong thế giới chỉ có thuật toán và mạng xã hội.



    Video
    ID : 1
    Format : AVC
    Format/Info : Advanced Video Codec
    Format profile : [email protected]
    Format settings : CABAC / 12 Ref Frames
    Format settings, CABAC : Yes
    Format settings, Reference frames : 12 frames
    Codec ID : V_MPEG4/ISO/AVC
    Duration : 1 h 46 min
    Bit rate : 3 730 kb/s
    Width : 1 280 pixels
    Height : 536 pixels
    Display aspect ratio : 2.40:1
    Frame rate mode : Constant
    Frame rate : 23.976 (24000/1001) FPS
    Color space : YUV
    Chroma subsampling : 4:2:0
    Bit depth : 8 bits
    Scan type : Progressive
    Bits/(Pixel*Frame) : 0.227
    Stream size : 2.78 GiB (71%)
    Writing library : x264 core 157 r2938 2b00a84 [email protected] Mod
    Encoding settings : cabac=1 / ref=12 / deblock=1:-3:-3 / analyse=0x3:0x133 / me=umh / subme=10 / psy=1 / psy_rd=1.05:0.00 / mixed_ref=1 / me_range=32 / chroma_me=1 / trellis=2 / 8x8dct=1 / cqm=0 / deadzone=21,11 / fast_pskip=0 / chroma_qp_offset=-2 / threads=12 / lookahead_threads=2 / sliced_threads=0 / nr=0 / decimate=0 / interlaced=0 / bluray_compat=0 / constrained_intra=0 / bframes=8 / b_pyramid=2 / b_adapt=2 / b_bias=0 / direct=3 / weightb=1 / open_gop=0 / weightp=2 / keyint=250 / keyint_min=24 / scenecut=40 / intra_refresh=0 / rc_lookahead=250 / rc=crf / mbtree=0 / crf=16.8 / qcomp=0.60 / qpmin=0 / qpmax=69 / qpstep=4 / vbv_maxrate=62500 / vbv_bufsize=78125 / crf_max=0.0 / nal_hrd=none / filler=0 / ip_ratio=1.30 / pb_ratio=1.20 / aq=3:0.80
    Language : English
    Default : Yes
    Forced : No
    Color range : Limited
    Color primaries : BT.709
    Matrix coefficients : BT.709

    AUDIO.........: Vietnamese Stereo [email protected] Kbps | Lồng Tiếng Việt Chuẩn | @JenkaStudioVN - NetHD.ORG

    Audio
    ID : 2
    Format : DTS
    Format/Info : Digital Theater Systems
    Codec ID : A_DTS
    Duration : 1 h 46 min
    Bit rate mode : Constant
    Bit rate : 1 509 kb/s
    Channel(s) : 6 channels
    Channel layout : C L R Ls Rs LFE
    Sampling rate : 48.0 kHz
    Frame rate : 93.750 FPS (512 SPF)
    Bit depth : 24 bits
    Compression mode : Lossy
    Stream size : 1.13 GiB (29%)
    Language : English
    Default : Yes
    Forced : No

    Text
    ID : 3
    Format : UTF-8
    Codec ID : S_TEXT/UTF8
    Codec ID/Info : UTF-8 Plain Text
    Duration : 1 h 39 min
    Bit rate : 77 b/s
    Count of elements : 1970
    Stream size : 56.2 KiB (0%)
    Language : English
    Default : Yes
    Forced : No

    Menu
    00:00:00.000 : en:Chapter 01
    00:07:58.520 : en:Chapter 02
    00:14:35.416 : en:Chapter 03
    00:21:32.750 : en:Chapter 04
    00:29:58.296 : en:Chapter 05
    00:35:12.277 : en:Chapter 06
    00:40:05.111 : en:Chapter 07
    00:45:50.081 : en:Chapter 08
    00:52:35.694 : en:Chapter 09
    00:58:08.276 : en:Chapter 10
    01:04:16.186 : en:Chapter 11
    01:11:24.155 : en:Chapter 12
    01:19:45.364 : en:Chapter 13
    01:23:37.221 : en:Chapter 14
    01:28:54.663 : en:Chapter 15
    01:32:59.282 : en:Chapter 16
    01:37:36.350 : en:Chapter 17
    01:40:03.998 : en:Chapter 18


    [​IMG][​IMG][​IMG][​IMG][​IMG][​IMG]

    Fshare ~ 4.24GB

    Nhấn nút Cảm ơn (dưới chân bài) để thấy link!


    4Share
    Nhấn nút Cảm ơn (dưới chân bài) để thấy link!



    Sub Việt

    https://subscene.com/subtitles/rons-gone-wrong

    Tổng hợp phim 18+
    Nhấn nút Cảm ơn (dưới chân bài) để thấy link!

    Tổng hợp phim full Menu (Thuyết minh+Sub Việt) bluray (nethd.org)
    Nhấn nút Cảm ơn (dưới chân bài) để thấy link!

    Tổng hợp phim bộ Lồng tiếng, thuyết minh, sub việt
    Nhấn nút Cảm ơn (dưới chân bài) để thấy link!

    Tổng hợp phim bluray Remux ISO 4K





    mhd

    720p https://www.hdvietnam.com/threads/phieu-luu-rons-gone-wrong-2021-720p-bluray-x264-dts-mt.1743817/

    1080p https://www.hdvietnam.com/threads/p...-2021-1080p-bluray-dd-7-1-x264-tayto.1742955/

    4K https://www.hdvietnam.com/threads/4...1-2160p-uhd-x265-10bit-hdr-muhd-frds.1743818/

    Thuyết minh

    Remux 4K https://www.hdvietnam.com/threads/r...160p-hevc-atmos-truehd7-1-ron-chu-ro.1741228/

    ISO 4K https://www.hdvietnam.com/threads/i...evc-atmos-truehd7-1-mteam-ron-chu-ro.1741227/

    ISO https://www.hdvietnam.com/threads/i...p-avc-dts-hd-ma-7-1-mteam-ron-chu-ro.1741229/
     
    tayvtn cảm ơn bài này.

Chia sẻ trang này