[Fshare] [Perf] Hà Thanh Xuân - Mưa (Asia 68 2011) [Bluray 1080i AC3 5.1]

Thảo luận trong 'Việt Nam' bắt đầu bởi doanvanhuy, 5/10/11.

  1. doanvanhuy

    doanvanhuy Well-Known Member

    Tham gia ngày:
    14/5/09
    Bài viết:
    1,979
    Đã được cảm ơn:
    6,665
    Hà Thanh Xuân - Mưa Bluray 1080i AC3 5.1


    [​IMG]


    [​IMG]

    [​IMG]
    Mã:

    General
    
    	

    ID : 1 (0x1) Complete name : G:\CLIP PARIS BY NIGHT & ASIA\Mua - Ha Thanh Xuan 1080i Bluray.m2ts Format : BDAV Format/Info : Blu-ray Video File size : 700 MiB Duration : 3mn 59s Overall bit rate : 24.5 Mbps Maximum Overall bit rate : 35.5 Mbps Video ID : 4113 (0x1011) Menu ID : 1 (0x1) Format : MPEG Video Format version : Version 2 Format profile : [email protected] Format settings, BVOP : Yes Format settings, Matrix : Default Format settings, GOP : M=3, N=15 Codec ID : 2 Duration : 3mn 59s Bit rate mode : Variable Bit rate : 22.3 Mbps Maximum bit rate : 35.0 Mbps Width : 1 920 pixels Height : 1 080 pixels Display aspect ratio : 16:9 Frame rate : 29.970 fps Color space : YUV Chroma subsampling : 4:2:0 Bit depth : 8 bits Scan type : Interlaced Scan order : Top Field First Compression mode : Lossy Bits/(Pixel*Frame) : 0.358 Stream size : 635 MiB (91%) Audio #1 ID : 4352 (0x1100) Menu ID : 1 (0x1) Format : AC-3 Format/Info : Audio Coding 3 Mode extension : CM (complete main) Codec ID : 129 Duration : 3mn 59s Bit rate mode : Constant Bit rate : 640 Kbps Channel(s) : 2 channels Channel positions : Front: L R Sampling rate : 48.0 KHz Bit depth : 16 bits Compression mode : Lossy Delay relative to video : -107ms Stream size : 18.3 MiB (3%) Language : English Audio #2 ID : 4353 (0x1101) Menu ID : 1 (0x1) Format : AC-3 Format/Info : Audio Coding 3 Mode extension : CM (complete main) Codec ID : 129 Duration : 3mn 59s Bit rate mode : Constant Bit rate : 640 Kbps Channel(s) : 6 channels Channel positions : Front: L C R, Side: L R, LFE Sampling rate : 48.0 KHz Bit depth : 16 bits Compression mode : Lossy Delay relative to video : -107ms Stream size : 18.3 MiB (3%) Language : English
    [​IMG]
    :fs:
    Mã:
    [hide][CENTER]http://www.fshare.vn/file/TG5A0AYVXT
    http://www.fshare.vn/file/TTGHMM03DT
    http://www.fshare.vn/file/T33W1ZWXYT
    http://www.fshare.vn/file/TAXN5MZCKT
    [/CENTER][/hide]
     
  2. minhvu10108040

    minhvu10108040 Well-Known Member

    Tham gia ngày:
    29/1/11
    Bài viết:
    1,566
    Đã được cảm ơn:
    183
    Ðề: [Perf] Hà Thanh Xuân - Mưa (Asia 68 2011) [Bluray 1080i AC3 5.1]

    tks Bác nhiều...hàng ngon!
     
    giangnamhp2006 cảm ơn bài này.
  3. HUY-HDD

    HUY-HDD Member

    Tham gia ngày:
    2/5/12
    Bài viết:
    108
    Đã được cảm ơn:
    12
    Ðề: [Perf] Hà Thanh Xuân - Mưa (Asia 68 2011) [Bluray 1080i AC3 5.1]

    ca sỹ hà thanh xuân xinh quá cơ,thank minhvu10108040!
     
    giangnamhp2006 cảm ơn bài này.
  4. buituankiet

    buituankiet Banned

    Tham gia ngày:
    12/2/10
    Bài viết:
    1,675
    Đã được cảm ơn:
    15
    Ðề: [Perf] Hà Thanh Xuân - Mưa (Asia 68 2011) [Bluray 1080i AC3 5.1]

    link die rồi bác ơi !!
     
    giangnamhp2006 cảm ơn bài này.
  5. namirae

    namirae Active Member

    Tham gia ngày:
    13/12/13
    Bài viết:
    387
    Đã được cảm ơn:
    130
    Ðề: [Perf] Hà Thanh Xuân - Mưa (Asia 68 2011) [Bluray 1080i AC3 5.1]

    Mình yêu giọng hát Hà Thanh Xuân nhất. Cảm ơn Bác doanvanhuy nhiều.
     
    giangnamhp2006 cảm ơn bài này.
  6. lee_bk

    lee_bk New Member

    Tham gia ngày:
    9/11/12
    Bài viết:
    11
    Đã được cảm ơn:
    0
    link die rồi thớt ơi
     
  7. Cocangidau

    Cocangidau Member

    Tham gia ngày:
    26/11/15
    Bài viết:
    56
    Đã được cảm ơn:
    506
    Ðề: [Perf] Hà Thanh Xuân - Mưa (Asia 68 2011) [Bluray 1080i AC3 5.1]

    link die rồi bác ơi :((
     
    Cỏ Xót Xa Đưa cảm ơn bài này.
  8. nam0905118

    nam0905118 Member

    Tham gia ngày:
    9/4/12
    Bài viết:
    121
    Đã được cảm ơn:
    10
    Ðề: [Perf] Hà Thanh Xuân - Mưa (Asia 68 2011) [Bluray 1080i AC3 5.1]

    link die rồi bác ơi
     

Chia sẻ trang này