[Fshare] [Netflix] Đôi Mắt Rực Rỡ-The Light in Your Eyes 1080p Vietsub

Thảo luận trong 'Phim bộ - Series' bắt đầu bởi hoangthanh_mobi, 12/3/20.

Tags
  1. hoangthanh_mobi

    hoangthanh_mobi Active Member

    Tham gia ngày:
    21/1/11
    Bài viết:
    49
    Đã được cảm ơn:
    129
    [​IMG]

    [Netflix] Đôi Mắt Rực Rỡ-The Light in Your Eyes 1080p Vietsub

    [​IMG]
    General
    Unique ID : 252565138224800410949822508612947097157 (0xBE0246B9139A82371B571716755D3645)
    Complete name : The.Light.In.Your.Eyes.S01.KOREAN.1080p.NF.WEBRip.DDP2.0.x264-ExREN[rartv]2\The.Light.In.Your.Eyes.S01E01.1080p.NF.WEB-DL.DDP2.0.x264.mkv
    Format : Matroska
    Format version : Version 4
    File size : 1.90 GiB
    Duration : 1 h 8 min
    Overall bit rate mode : Variable
    Overall bit rate : 3 959 kb/s
    Encoded date : UTC 2020-03-01 05:09:01 / UTC 2019-10-29 07:39:44
    Writing application : mkvmerge v43.0.0 ('The Quartermaster') 64-bit
    Writing library : libebml v1.3.10 + libmatroska v1.5.2 / Lavf58.0.0

    Video
    ID : 1
    Format : AVC
    Format/Info : Advanced Video Codec
    Format profile : [email protected]
    Format settings : CABAC / 3 Ref Frames
    Format settings, CABAC : Yes
    Format settings, ReFrames : 3 frames
    Codec ID : V_MPEG4/ISO/AVC
    Duration : 1 h 8 min
    Bit rate mode : Variable
    Bit rate : 3 830 kb/s
    Maximum bit rate : 5 745 kb/s
    Width : 1 920 pixels
    Height : 1 080 pixels
    Display aspect ratio : 16:9
    Frame rate mode : Constant
    Frame rate : 23.976 (24000/1001) FPS
    Color space : YUV
    Chroma subsampling : 4:2:0
    Bit depth : 8 bits
    Scan type : Progressive
    Bits/(Pixel*Frame) : 0.077
    Stream size : 1.80 GiB (95%)
    Writing library : x264 core 148 r2715 7e75228
    Encoding settings : cabac=1 / ref=3 / deblock=1:0:0 / analyse=0x1:0x111 / me=umh / subme=10 / psy=1 / psy_rd=1.00:0.00 / mixed_ref=1 / me_range=24 / chroma_me=1 / trellis=2 / 8x8dct=0 / cqm=0 / deadzone=21,11 / fast_pskip=1 / chroma_qp_offset=-2 / threads=6 / lookahead_threads=1 / sliced_threads=0 / nr=0 / decimate=1 / interlaced=0 / bluray_compat=0 / stitchable=1 / constrained_intra=0 / bframes=2 / b_pyramid=0 / b_adapt=2 / b_bias=0 / direct=3 / weightb=1 / open_gop=0 / weightp=2 / keyint=250 / keyint_min=23 / scenecut=0 / intra_refresh=0 / rc_lookahead=48 / rc=2pass / mbtree=1 / bitrate=3830 / ratetol=1.0 / qcomp=0.50 / qpmin=6 / qpmax=51 / qpstep=4 / cplxblur=20.0 / qblur=0.5 / vbv_maxrate=5745 / vbv_bufsize=7660 / nal_hrd=vbr / filler=0 / ip_ratio=1.40 / aq=1:1.00
    Default : Yes
    Forced : No
    Statistics Tags Issue : mkvmerge v43.0.0 ('The Quartermaster') 64-bit 2020-03-01 05:09:01 / mkvmerge v43.0.0 ('The Quartermaster') 64-bit 2020-03-01 05:09:01 / UTC 2019-10-29 07:39:44
    FromStats_BitRate : 3827655
    FromStats_Duration : 01:08:50.377000000
    FromStats_FrameCount : 99030
    FromStats_StreamSize : 1976207732

    Audio
    ID : 2
    Format : E-AC-3
    Format/Info : Enhanced AC-3
    Commercial name : Dolby Digital Plus
    Codec ID : A_EAC3
    Duration : 1 h 8 min
    Bit rate mode : Constant
    Bit rate : 128 kb/s
    Channel(s) : 2 channels
    Channel layout : L R
    Sampling rate : 48.0 kHz
    Frame rate : 31.250 FPS (1536 SPF)
    Compression mode : Lossy
    Stream size : 63.0 MiB (3%)
    Title : Korean
    Language : Korean
    Service kind : Complete Main
    Default : Yes
    Forced : No
    Encoded date : UTC 2019-10-29 07:39:44
    Statistics Tags Issue : mkvmerge v43.0.0 ('The Quartermaster') 64-bit 2020-03-01 05:09:01 / mkvmerge v43.0.0 ('The Quartermaster') 64-bit 2020-03-01 05:09:01 / UTC 2019-10-29 07:39:44
    FromStats_BitRate : 128000
    FromStats_Duration : 01:08:50.464000000
    FromStats_FrameCount : 129077
    FromStats_StreamSize : 66087424

    Text #1
    ID : 3
    Format : UTF-8
    Codec ID : S_TEXT/UTF8
    Codec ID/Info : UTF-8 Plain Text
    Language : Arabic
    Default : No
    Forced : No
    Statistics Tags Issue : mkvmerge v43.0.0 ('The Quartermaster') 64-bit 2020-03-01 05:09:01 / mkvmerge v43.0.0 ('The Quartermaster') 64-bit 2020-03-01 05:09:01 / UTC 2019-10-29 07:39:44
    FromStats_BitRate : 110
    FromStats_Duration : 01:08:24.434000000
    FromStats_FrameCount : 1195
    FromStats_StreamSize : 56720

    Text #2
    ID : 4
    Format : UTF-8
    Codec ID : S_TEXT/UTF8
    Codec ID/Info : UTF-8 Plain Text
    Language : English
    Default : No
    Forced : No
    Statistics Tags Issue : mkvmerge v43.0.0 ('The Quartermaster') 64-bit 2020-03-01 05:09:01 / mkvmerge v43.0.0 ('The Quartermaster') 64-bit 2020-03-01 05:09:01 / UTC 2019-10-29 07:39:44
    FromStats_BitRate : 75
    FromStats_Duration : 01:08:24.059000000
    FromStats_FrameCount : 1184
    FromStats_StreamSize : 38888

    Text #3
    ID : 5
    Format : UTF-8
    Codec ID : S_TEXT/UTF8
    Codec ID/Info : UTF-8 Plain Text
    Language : Indonesian
    Default : No
    Forced : No
    Statistics Tags Issue : mkvmerge v43.0.0 ('The Quartermaster') 64-bit 2020-03-01 05:09:01 / mkvmerge v43.0.0 ('The Quartermaster') 64-bit 2020-03-01 05:09:01 / UTC 2019-10-29 07:39:44
    FromStats_BitRate : 73
    FromStats_Duration : 01:08:24.059000000
    FromStats_FrameCount : 1195
    FromStats_StreamSize : 37742

    Text #4
    ID : 6
    Format : UTF-8
    Codec ID : S_TEXT/UTF8
    Codec ID/Info : UTF-8 Plain Text
    Language : Thai
    Default : No
    Forced : No
    Statistics Tags Issue : mkvmerge v43.0.0 ('The Quartermaster') 64-bit 2020-03-01 05:09:01 / mkvmerge v43.0.0 ('The Quartermaster') 64-bit 2020-03-01 05:09:01 / UTC 2019-10-29 07:39:44
    FromStats_BitRate : 183
    FromStats_Duration : 01:08:25.310000000
    FromStats_FrameCount : 1196
    FromStats_StreamSize : 94177

    Text #5
    ID : 7
    Format : UTF-8
    Codec ID : S_TEXT/UTF8
    Codec ID/Info : UTF-8 Plain Text
    Language : Turkish
    Default : No
    Forced : No
    Statistics Tags Issue : mkvmerge v43.0.0 ('The Quartermaster') 64-bit 2020-03-01 05:09:01 / mkvmerge v43.0.0 ('The Quartermaster') 64-bit 2020-03-01 05:09:01 / UTC 2019-10-29 07:39:44
    FromStats_BitRate : 72
    FromStats_Duration : 01:08:24.058000000
    FromStats_FrameCount : 1195
    FromStats_StreamSize : 37279

    Text #6
    ID : 8
    Format : UTF-8
    Codec ID : S_TEXT/UTF8
    Codec ID/Info : UTF-8 Plain Text
    Language : Vietnamese
    Default : No
    Forced : No
    Statistics Tags Issue : mkvmerge v43.0.0 ('The Quartermaster') 64-bit 2020-03-01 05:09:01 / mkvmerge v43.0.0 ('The Quartermaster') 64-bit 2020-03-01 05:09:01 / UTC 2019-10-29 07:39:44
    FromStats_BitRate : 97
    FromStats_Duration : 01:08:26.144000000
    FromStats_FrameCount : 1190
    FromStats_StreamSize : 49912

    Text #7
    ID : 9
    Format : UTF-8
    Codec ID : S_TEXT/UTF8
    Codec ID/Info : UTF-8 Plain Text
    Title : Simplified
    Language : Chinese
    Default : No
    Forced : No
    Statistics Tags Issue : mkvmerge v43.0.0 ('The Quartermaster') 64-bit 2020-03-01 05:09:01 / mkvmerge v43.0.0 ('The Quartermaster') 64-bit 2020-03-01 05:09:01 / UTC 2019-10-29 07:39:44
    FromStats_BitRate : 70
    FromStats_Duration : 01:08:24.434000000
    FromStats_FrameCount : 1194
    FromStats_StreamSize : 36077
    [​IMG]

    Download Full 12/12
    Link tải phim
    Nhấn nút Cảm ơn (dưới chân bài) để thấy link!

    Mux sẵn sub Tiếng Việt
     
  2. kangruru

    kangruru Active Member

    Tham gia ngày:
    25/10/15
    Bài viết:
    256
    Đã được cảm ơn:
    78
    cám ơn bạn nhiều những phim có được bản đẹp thế này cứ được bộ nào là mừng bộ đó mong bạn phát huy hết mình nha
     
  3. binhlethanh90

    binhlethanh90 New Member

    Tham gia ngày:
    21/2/12
    Bài viết:
    5
    Đã được cảm ơn:
    1
    Chủ thớt ơi bạn có thể reup lại các tập còn lại không, hiện mình thấy trên folder chỉ còn có 4 tập huhu T-T
     
  4. NguyetNgo1912

    NguyetNgo1912 New Member

    Tham gia ngày:
    8/10/20
    Bài viết:
    2
    Đã được cảm ơn:
    0
    Giới tính:
    Nữ
    Chủ thớt ơi link die hết rồi Up lại giúp mình với, pls!!!
     
  5. lamchizanh

    lamchizanh Active Member

    Tham gia ngày:
    9/10/09
    Bài viết:
    152
    Đã được cảm ơn:
    46
    reup giúp vs ạ bác chủ ơi ... please
     

Chia sẻ trang này