[Google Drive] [MV] Hoàng Thùy Linh - Để Mị Nói Cho Mà Nghe (4K Master)

Thảo luận trong 'Việt Nam' bắt đầu bởi manhpotato, 25/8/21.

  1. manhpotato

    manhpotato Well-Known Member

    Tham gia ngày:
    11/2/16
    Bài viết:
    110
    Đã được cảm ơn:
    1,153
    [​IMG]
    General
    Complete name : C:\Users\Hoàng Thùy Linh - Để Mị Nói Cho Mà Nghe (Master).mp4
    Format : MPEG-4
    Format profile : Base Media
    Codec ID : iso5 (iso5/iso6/mp41)
    File size : 736 MiB

    Duration : 4 min 23 s

    Overall bit rate : 23.4 Mb/s
    Writing application : Lavf59.4.101
    Video
    ID : 1
    Format : AVC
    Format/Info : Advanced Video Codec
    Format profile : [email protected]
    Format settings : CABAC / 5 Ref Frames
    Format settings, CABAC : Yes
    Format settings, Reference : 5 frames
    Codec ID : avc1
    Codec ID/Info : Advanced Video Coding
    Duration : 4 min 23 s
    Bit rate : 23.2 Mb/s
    Width : 3 840 pixels
    Height : 2 160 pixels
    Display aspect ratio : 16:9
    Frame rate mode : Constant
    Frame rate : 23.976 (24000/1001) FPS
    Color space : YUV
    Chroma subsampling : 4:2:0
    Bit depth : 8 bits
    Scan type : Progressive
    Bits/(Pixel*Frame) : 0.117
    Stream size : 731 MiB (99%)
    Writing library : x264 core 157 r10 d4099dd
    Color range : Limited
    Color primaries : BT.709
    Transfer characteristics : BT.709
    Matrix coefficients : BT.709
    Codec configuration box : avcC
    Audio
    ID : 2
    Format : AAC LC
    Format/Info : Advanced Audio Codec Low Complexity
    Codec ID : mp4a-40-2
    Duration : 4 min 23 s
    Bit rate mode : Constant
    Bit rate : 137 kb/s
    Channel(s) : 2 channels
    Channel layout : L R
    Sampling rate : 48.0 kHz
    Frame rate : 46.875 FPS (1024 SPF)
    Compression mode : Lossy
    Stream size : 4.31 MiB (1%)
    Default : Yes
    Alternate group : 1

     
  2. youandme_nt2010

    youandme_nt2010 Well-Known Member

    Tham gia ngày:
    26/2/11
    Bài viết:
    1,986
    Đã được cảm ơn:
    1,623
    tưởng 1.59GB mới đúng chứ [​IMG]
     
  3. wanara

    wanara Well-Known Member

    Tham gia ngày:
    2/9/10
    Bài viết:
    1,206
    Đã được cảm ơn:
    27,862
    Giới tính:
    Nam
    Nơi ở:
    Việt Nam
    File bị lỗi rồi bác chủ, vấp ở gần cuối video, master như ảnh dưới mới phải [​IMG]

    [​IMG]
     
  4. rongcanlc

    rongcanlc Well-Known Member

    Tham gia ngày:
    27/3/09
    Bài viết:
    2,895
    Đã được cảm ơn:
    25,731
    Nghề nghiệp:
    Sinh viên nghèo
    Chia sẻ lại file này đi bác
     
  5. hiepham

    hiepham Active Member

    Tham gia ngày:
    19/9/09
    Bài viết:
    656
    Đã được cảm ơn:
    199
    Hóng sếp có con 4K ProRes :(
     
  6. koalablue

    koalablue Active Member

    Tham gia ngày:
    19/9/11
    Bài viết:
    521
    Đã được cảm ơn:
    105
    Giới tính:
    Nữ
    Thank you very much my friend!
     

Chia sẻ trang này