[MULTI] Little House On The Prairie-Ngôi Nhà Nhỏ Trên Thảo Nguyên-720P Bluray Full 206/206 Tập

Thảo luận trong 'Phim bộ - Series' bắt đầu bởi duongminhngau, 13/4/20.

  1. duongminhngau

    duongminhngau Well-Known Member

    Tham gia ngày:
    7/12/11
    Bài viết:
    690
    Đã được cảm ơn:
    8,151
    Giới tính:
    Nam
    Little House On The Prairie - Ngôi Nhà Nhỏ Trên Thảo Nguyên - 720P Bluray - Full 206/206 Tập

    [​IMG]



    Thông tin chung:

    Nguyên tác: Dựa theo tiểu thuyết cùng tên của Laura Ingalls Wilder



    Đạo diễn : Michael Landon



    Diễn viên:

    Michael Landon trong vai Charles Ingalls
    Karen Grtrong vaisle trong vai Caroline Quiner Ingalls
    Melissa Gilbert trong vai Laura Ingalls Wilder
    Melissa Sue Anderson trong vai Mary Ingalls Kendall
    Lindsay and Sidney Greenbush trong vai Carrie Ingalls





    Thông tin file

    Mã:
    [/FONT][/CENTER][/FONT][/CENTER][/FONT][/CENTER]
    [FONT=Times New Roman]
    [CENTER][FONT=Times New Roman]
    [CENTER][FONT=Times New Roman]
    [CENTER]General
    Unique ID                   : 189556633943971560056543632131187881072 (0x8E9B479D7FC06EEBBE31911B22D13470)
    Complete name               : D:\duongminh\Little House On The Prairie Series\056.Little.House.on.the.Prairie.S03E10.The Hunters December 20,1976.mkv
    Format                      : Matroska
    Format version              : Version 4
    File size                   : 3.50 GiB
    Duration                    : 1 h 13 min
    Overall bit rate            : 6 787 kb/s
    Encoded date                : UTC 2020-04-10 10:34:08
    Writing application         : mkvmerge v8.2.0 ('World of Adventure') 64bit
    Writing library             : libebml v1.3.1 + libmatroska v1.4.2
    Video
    ID                          : 1
    Format                      : AVC
    Format/Info                 : Advanced Video Codec
    Format profile              : [email protected]
    Format settings             : CABAC / 5 Ref Frames
    Format settings, CABAC      : Yes
    Format settings, Reference  : 5 frames
    Codec ID                    : V_MPEG4/ISO/AVC
    Duration                    : 1 h 13 min
    Bit rate                    : 4 827 kb/s
    Width                       : 944 pixels
    Height                      : 720 pixels
    Display aspect ratio        : 4:3
    Frame rate mode             : Constant
    Frame rate                  : 23.976 (24000/1001) FPS
    Color space                 : YUV
    Chroma subsampling          : 4:2:0
    Bit depth                   : 8 bits
    Scan type                   : Progressive
    Bits/(Pixel*Frame)          : 0.296
    Stream size                 : 2.49 GiB (71%)
    Title                       : Eng
    Writing library             : x264 core 142 r2479 dd79a61
    Encoding settings           : cabac=1 / ref=5 / deblock=1:-1:-1 / analyse=0x3:0x113 / me=umh / subme=7 / psy=1 / psy_rd=1.00:0.00 / mixed_ref=1 / me_range=16 / chroma_me=1 / trellis=1 / 8x8dct=1 / cqm=0 / deadzone=21,11 / fast_pskip=1 / chroma_qp_offset=-2 / threads=12 / lookahead_threads=2 / sliced_threads=0 / nr=0 / decimate=1 / interlaced=0 / bluray_compat=0 / constrained_intra=0 / bframes=3 / b_pyramid=2 / b_adapt=2 / b_bias=0 / direct=3 / weightb=1 / open_gop=0 / weightp=2 / keyint=250 / keyint_min=23 / scenecut=40 / intra_refresh=0 / rc_lookahead=40 / rc=2pass / mbtree=1 / bitrate=4827 / ratetol=1.0 / qcomp=0.60 / qpmin=0 / qpmax=69 / qpstep=4 / cplxblur=20.0 / qblur=0.5 / vbv_maxrate=50000 / vbv_bufsize=50000 / nal_hrd=none / filler=0 / ip_ratio=1.40 / aq=1:1.00
    Language                    : English
    Default                     : Yes
    Forced                      : No
    Audio #1
    ID                          : 2
    Format                      : AC-3
    Format/Info                 : Audio Coding 3
    Commercial name             : Dolby Digital
    Codec ID                    : A_AC3
    Duration                    : 1 h 13 min
    Bit rate mode               : Constant
    Bit rate                    : 448 kb/s
    Channel(s)                  : 2 channels
    Channel layout              : L R
    Sampling rate               : 48.0 kHz
    Frame rate                  : 31.250 FPS (1536 SPF)
    Compression mode            : Lossy
    Stream size                 : 237 MiB (7%)
    Title                       : Vie
    Language                    : Vietnamese
    Service kind                : Complete Main
    Default                     : Yes
    Forced                      : No
    Audio #2
    ID                          : 3
    Format                      : DTS
    Format/Info                 : Digital Theater Systems
    Codec ID                    : A_DTS
    Duration                    : 1 h 13 min
    Bit rate mode               : Constant
    Bit rate                    : 1 509 kb/s
    Channel(s)                  : 2 channels
    Channel layout              : L R
    Sampling rate               : 48.0 kHz
    Frame rate                  : 93.750 FPS (512 SPF)
    Bit depth                   : 24 bits
    Compression mode            : Lossy
    Stream size                 : 797 MiB (22%)
    Title                       : Eng
    Language                    : English
    Default                     : No
    Forced                      : No
    














    Giới Thiệu:

    Phim được phát sóng lần đầu tiên vào năm 1974. Nhưng mãi đến năm 1996, hiện tượng màn ảnh này mới có mặt tại Việt Nam trong khung giờ 18h tối hàng ngày trên VTV. Trong một quãng thời gian dài, bộ phim trở thành món ăn tinh thần không thể thiếu đối với giới trẻ nhiều thế hệ...

    Link Down G Drive


    Nhấn nút Cảm ơn (dưới chân bài) để thấy link!




     
    Last edited by a moderator: 13/4/20
  2. tatam

    tatam Well-Known Member

    Tham gia ngày:
    30/10/10
    Bài viết:
    4,107
    Đã được cảm ơn:
    26,703
    Giới tính:
    Nam
    Phim xưa mà chất lượng quá! Thanks.
     
    duongminhngau cảm ơn bài này.
  3. beeno92

    beeno92 Well-Known Member

    Tham gia ngày:
    29/11/09
    Bài viết:
    340
    Đã được cảm ơn:
    281
    nhớ hồi nhỏ ghê, bộ này chắc là lúc mới thành lập vtv3, xong bộ này là đến alex max rồi đường tới thiên đàng cô gái đại dương
     
    duongminhngau cảm ơn bài này.
  4. beeno92

    beeno92 Well-Known Member

    Tham gia ngày:
    29/11/09
    Bài viết:
    340
    Đã được cảm ơn:
    281
    bị hết lượt tải rồi @duongminhngau ah, mấy trăm file film mà tạo ánh xạ để tải về chắc chết wa, up wa fshare giùm mình đc ko
     
  5. duongminhngau

    duongminhngau Well-Known Member

    Tham gia ngày:
    7/12/11
    Bài viết:
    690
    Đã được cảm ơn:
    8,151
    Giới tính:
    Nam
    ok Bác, vì tưởng G drive không bị tình trạng này, để tôi up qua fshare rồi post link sau nhé, nhưng 500 Gb chắc phải đến ngày mai! Haaaaa! Wait...
     
  6. nghianhan1176411

    nghianhan1176411 Well-Known Member

    Tham gia ngày:
    23/11/12
    Bài viết:
    701
    Đã được cảm ơn:
    589
    đc link ggdrive thì thật sự rất tuyệt ^^ fshare bị giới hạn 50gb/ngày. Tải bộ này chắc nửa tháng mới xong. Cám ơn bạn
     
    duongminhngau cảm ơn bài này.
  7. Uchiha_Madara

    Uchiha_Madara Nghỉ hưu

    Tham gia ngày:
    30/10/12
    Bài viết:
    7,697
    Đã được cảm ơn:
    14,158
    Giờ không nhớ chút gì về phim này luôn, dù đã xem trên VTV3 rồi.
     
    duongminhngau cảm ơn bài này.
  8. Uchiha_Madara

    Uchiha_Madara Nghỉ hưu

    Tham gia ngày:
    30/10/12
    Bài viết:
    7,697
    Đã được cảm ơn:
    14,158
    à, anh em lưu ý không dùng host up ảnh imgur nhé, nó sẽ không hiện hình ở HDVN, nên dùng host imgit.org
     
    duongminhngau cảm ơn bài này.
  9. duongminhngau

    duongminhngau Well-Known Member

    Tham gia ngày:
    7/12/11
    Bài viết:
    690
    Đã được cảm ơn:
    8,151
    Giới tính:
    Nam
    Giờ xem đi Bác, ko cần down, xem online 1 chút cho nhớ! Haaaaaa!
     
    conghieu1978 and Uchiha_Madara like this.
  10. beeno92

    beeno92 Well-Known Member

    Tham gia ngày:
    29/11/09
    Bài viết:
    340
    Đã được cảm ơn:
    281
    ko phải quên thật đâu bác @BuiAn, cái gì ăn sâu vào tiềm thức, chỉ cần mình coi lại, tự nhiên mình nhớ ra là mình đã xem khúc đó rồi, hồi đó t mê mấy phim phát sóng khung 18h lắm mà phải đi học thêm, có mấy cuốn băng video rỗng nhờ ng nhà cứ đến h đó là bấm rec cho máy nó thu học về ăn cơm rồi xem, thoát mà gần 30 năm rồi. Giờ phim nhiều quá coi bội thực thiệt, hồi đó chả có gì mà coi.
     
    Uchiha_Madara cảm ơn bài này.
  11. beeno92

    beeno92 Well-Known Member

    Tham gia ngày:
    29/11/09
    Bài viết:
    340
    Đã được cảm ơn:
    281
    có sub ko bác dương ơi, bữa mình down của bác gì đó có sub, coi sub biết tên nhân vật chứ xem thuyết minh nhiều khi họ đọc bác "ét uốt" mà ko biết tiếng anh viết ntn nữa
     
    duongminhngau cảm ơn bài này.
  12. duongminhngau

    duongminhngau Well-Known Member

    Tham gia ngày:
    7/12/11
    Bài viết:
    690
    Đã được cảm ơn:
    8,151
    Giới tính:
    Nam
    Cái này Bác lên subscene là có hết, down 1 vài tập xem là nhớ ngay, hoặc Bác chuyền qua audio eng nghe một chút, vì bản tôi down về thì season có sub Eng, season lại không có sub, lúc add audio VTV tôi bỏ luôn. Vậy nhé ^^
     
    conghieu1978 and beeno92 like this.
  13. daovanhuy

    daovanhuy Active Member

    Tham gia ngày:
    5/3/09
    Bài viết:
    421
    Đã được cảm ơn:
    135
    tks b. siêu phẩm ngày xưa cùng thời vs osin đây mà
     
    duongminhngau cảm ơn bài này.
  14. Messi_Barca

    Messi_Barca Active Member

    Tham gia ngày:
    11/10/15
    Bài viết:
    200
    Đã được cảm ơn:
    242
    Giới tính:
    Nam
    HÓNG BẢN 1080P
     
    duongminhngau cảm ơn bài này.
  15. toby2727

    toby2727 New Member

    Tham gia ngày:
    16/8/18
    Bài viết:
    28
    Đã được cảm ơn:
    18
    Giới tính:
    Nam
    cảm ơn bác
     
    duongminhngau cảm ơn bài này.
  16. nguyendangdong

    nguyendangdong New Member

    Tham gia ngày:
    13/9/11
    Bài viết:
    1
    Đã được cảm ơn:
    1
    Bác ơi, sao em thấy có mấy tập không có thuyết minh nhỉ?
     
    duongminhngau cảm ơn bài này.
  17. duongminhngau

    duongminhngau Well-Known Member

    Tham gia ngày:
    7/12/11
    Bài viết:
    690
    Đã được cảm ơn:
    8,151
    Giới tính:
    Nam
    Chỉ có 4 tập không có TM vì VTV không chiếu 4 tập đó (S06Ep06 và 3 tập đặc biệt), nhưng 4 tập đó đều có add phụ đề Việt ở trong rồi.
     
  18. Ông đồ xứ Nghệ

    Ông đồ xứ Nghệ Active Member

    Tham gia ngày:
    29/2/20
    Bài viết:
    181
    Đã được cảm ơn:
    226
    Giới tính:
    Nam
    Nghề nghiệp:
    Giáo viên tiếng Anh
    Nơi ở:
    Phường Lê Lợi, TP Vinh, Nghệ An
    Bạn có engsub không thì gửi link cho mình với. Cảm ơn bạn
     
    vnn244 and Jose Trung like this.
  19. vnn244

    vnn244 New Member

    Tham gia ngày:
    2/2/11
    Bài viết:
    6
    Đã được cảm ơn:
    1
    cảm ơn admin
     
    duongminhngau cảm ơn bài này.

Chia sẻ trang này