[Kinh Dị] Titane 2021 1080p BluRay x264 DTS-WiKi

Thảo luận trong 'Fshare.vn' bắt đầu bởi xemaydinh, 23/11/21.

  1. xemaydinh

    xemaydinh Tem

    Tham gia ngày:
    3/7/10
    Bài viết:
    36,042
    Đã được cảm ơn:
    191,093
    Titane 2021 1080p BluRay x264 DTS-WiKi | 18+

    [​IMG]

    Cân nhắc​



    Titane - Titane (2021) xoay quanh câu chuyện của Alexia, sau khi cô cùng gia đình gặp phải một vụ tai nạn oto thì đầu Alexia có một chiếc đĩa Titan gắn vào. Để phục hồi, cô sống xa gia đình, cha mẹ và gắn liền với chiếc xe hơi. Khi trưởng thành Alexia thể hiện mình có một niềm đam mệ say đắm với oto, cô thường xuyên biểu diễn biểu diễn như một cô gái bán dâm tại một triển lãm xe máy, để lộ vết sẹo trên đầu cũng như một hình xăm tục tĩu trên ngực. Vì điều này mà Alexia trở thành đối tượng bị săn đón về tình dục của cả phụ nữ, đàn ông. Cô có sở thích làm tình trên xe hơi, rồi sau một lần bị người hâm mộ tấn công cô có thai. Kể từ đây cuộc sống của Alexia bước sáng trang mới,…

    General

    Unique ID : 200071321226890158025979619740719286414 (0x968455B9262091C1875BE5884E0C888E)
    Complete name : Titane.2021.1080p.BluRay.x264.DTS-WiKi.mkv
    Format : Matroska
    Format version : Version 1
    File size : 11.3 GiB
    Duration : 1 h 47 min
    Overall bit rate : 15.0 Mb/s
    Encoded date : UTC 2021-11-23 01:36:26
    Writing application : mkvmerge v2.2.0 ('Turn It On Again') built on Mar 4 2008 13:20:25
    Writing library : libebml v0.7.7 + libmatroska v0.8.1
    Attachments : MSYH.TTF / MSYHBD.TTF / MSYH_chscht.ttf / tahoma.ttf / MSYH.TTF / MSYH_chscht.ttf / MSYHBD.TTF / tahoma.ttf

    Video
    ID : 1
    Format : AVC
    Format/Info : Advanced Video Codec
    Format profile : [email protected]
    Format settings : CABAC / 5 Ref Frames
    Format settings, CABAC : Yes
    Format settings, Reference frames : 5 frames
    Codec ID : V_MPEG4/ISO/AVC
    Duration : 1 h 47 min
    Bit rate : 13.4 Mb/s
    Width : 1 920 pixels
    Height : 804 pixels
    Display aspect ratio : 2.40:1
    Frame rate mode : Constant
    Frame rate : 24.000 FPS
    Color space : YUV
    Chroma subsampling : 4:2:0
    Bit depth : 8 bits
    Scan type : Progressive
    Bits/(Pixel*Frame) : 0.362
    Stream size : 9.97 GiB (88%)
    Writing library : x264 core 133 r2334 a3ac64b
    Encoding settings : cabac=1 / ref=5 / deblock=1:-3:-3 / analyse=0x3:0x113 / me=umh / subme=11 / psy=1 / psy_rd=1.00:0.00 / mixed_ref=1 / me_range=64 / chroma_me=1 / trellis=2 / 8x8dct=1 / cqm=0 / deadzone=21,11 / fast_pskip=0 / chroma_qp_offset=-4 / threads=36 / lookahead_threads=6 / sliced_threads=0 / nr=0 / decimate=0 / interlaced=0 / bluray_compat=0 / constrained_intra=0 / bframes=8 / b_pyramid=2 / b_adapt=2 / b_bias=0 / direct=3 / weightb=1 / open_gop=0 / weightp=2 / keyint=250 / keyint_min=24 / scenecut=40 / intra_refresh=0 / rc=2pass / mbtree=0 / bitrate=13400 / ratetol=1.0 / qcomp=0.60 / qpmin=0 / qpmax=69 / qpstep=4 / cplxblur=20.0 / qblur=0.5 / ip_ratio=1.40 / pb_ratio=1.30 / aq=1:0.80
    Language : English
    Default : Yes
    Forced : No

    Audio
    ID : 2
    Format : DTS
    Format/Info : Digital Theater Systems
    Codec ID : A_DTS
    Duration : 1 h 47 min
    Bit rate mode : Constant
    Bit rate : 1 509 kb/s
    Channel(s) : 6 channels
    Channel layout : C L R Ls Rs LFE
    Sampling rate : 48.0 kHz
    Frame rate : 93.750 FPS (512 SPF)
    Bit depth : 24 bits
    Compression mode : Lossy
    Stream size : 1.14 GiB (10%)
    Title : 法语
    Language : French
    Default : Yes
    Forced : No

    Text #1
    ID : 3
    Format : ASS
    Codec ID : S_TEXT/ASS
    Codec ID/Info : Advanced Sub Station Alpha
    Compression mode : Lossless
    Title : chs&eng
    Language : Chinese
    Default : Yes
    Forced : No

    Text #2
    ID : 4
    Format : ASS
    Codec ID : S_TEXT/ASS
    Codec ID/Info : Advanced Sub Station Alpha
    Compression mode : Lossless
    Title : cht
    Language : Chinese
    Default : No
    Forced : No




    mhd https://www.hdvietnam.com/threads/kinh-di-titane-2021-m-720p-1080p-bluray-dd5-1x264-xmd.1737890/

    720p https://www.hdvietnam.com/threads/kinh-di-titane-2021-720p-bluray-x264-dts-wiki.1737476/

    1080p https://www.hdvietnam.com/threads/kinh-di-titane-2021-1080p-bluray-x264-dts-wiki.1735949/

    Thuyết minh

    Remux https://hdvietnam.com/threads/kinh-di-titane-2021-fra-bluray-1080p-avc-dts-hd-ma-5-1.1734911/

    ISO
     
    Chỉnh sửa cuối: 4/5/22
  2. xemaydinh

    xemaydinh Tem

    Tham gia ngày:
    3/7/10
    Bài viết:
    36,042
    Đã được cảm ơn:
    191,093

Chia sẻ trang này