[Fshare] [Kinh Dị] Scary Stories to Tell in the Dark 2019 ViE 1080p 10bit-Tigole ~ Chuyện Kinh Dị Lúc Nửa Đêm

Thảo luận trong 'Phim có audio Việt' bắt đầu bởi legendhaiduong, 10/8/20.

  1. legendhaiduong

    legendhaiduong Well-Known Member

    Tham gia ngày:
    30/3/13
    Bài viết:
    304
    Đã được cảm ơn:
    1,779
    Giới tính:
    Nam
    Scary Stories to Tell in the Dark 2019 ViE 1080p 10bit-Tigole ~ Chuyện Kinh Dị Lúc Nửa Đêm
    {Sub Việt | Thuyết Minh}

    Zoe Margaret Colletti, Michael Garza, Gabriel Rush
    IMDb ~6.2 https://www.imdb.com/title/tt3387520/

    [​IMG]


    Complete name : Scary.Stories.to.Tell.in.the.Dark.2019.ViE.1080p BluRay.x265.10bit-Tigole.mkv
    Format : Matroska
    Format version : Version 4
    File size : 3.61 GiB
    Duration : 1 h 47 min
    Overall bit rate : 4 786 kb/s
    Movie name : Scary Stories To Tell in the Dark
    Encoded date : UTC 2020-08-10 03:37:11
    Writing application : mkvmerge v49.0.0 ('Sick Of Losing Soulmates') 64-bit
    Writing library : libebml v1.4.0 + libmatroska v1.6.1

    Video
    ID : 1
    Format : HEVC
    Format/Info : High Efficiency Video Coding
    Format profile : Main [email protected]@Main
    Codec ID : V_MPEGH/ISO/HEVC
    Duration : 1 h 47 min
    Bit rate : 3 711 kb/s
    Width : 1 920 pixels
    Height : 804 pixels
    Display aspect ratio : 2.40:1
    Frame rate mode : Constant
    Frame rate : 23.976 (24000/1001) FPS
    Color space : YUV
    Chroma subsampling : 4:2:0
    Bit depth : 10 bits
    Bits/(Pixel*Frame) : 0.100
    Stream size : 2.80 GiB (78%)
    Writing library : x265 3.2+5-354901970679:[Windows][GCC 9.2.0][64 bit] 10bit

    Audio #1
    ID : 2
    Format : AAC LC
    Format/Info : Advanced Audio Codec Low Complexity
    Codec ID : A_AAC-2
    Duration : 1 h 47 min
    Bit rate : 425 kb/s
    Channel(s) : 6 channels
    Channel layout : C L R Ls Rs LFE
    Sampling rate : 48.0 kHz
    Frame rate : 46.875 FPS (1024 SPF)
    Compression mode : Lossy
    Delay relative to video : 20 ms
    Stream size : 329 MiB (9%)
    Language : English
    Default : Yes
    Forced : No

    Audio #2
    ID : 3
    Format : AC-3
    Format/Info : Audio Coding 3
    Commercial name : Dolby Digital
    Codec ID : A_AC3
    Duration : 1 h 47 min
    Bit rate mode : Constant
    Bit rate : 640 kb/s
    Channel(s) : 6 channels
    Channel layout : L R C LFE Ls Rs
    Sampling rate : 48.0 kHz
    Frame rate : 31.250 FPS (1536 SPF)
    Compression mode : Lossy
    Stream size : 494 MiB (13%)
    Title : AudioViệt Mux
    Language : Vietnamese
    Service kind : Complete Main
    Default : No
    Forced : No

    Text #1
    ID : 4
    Format : UTF-8
    Codec ID : S_TEXT/UTF8
    Codec ID/Info : UTF-8 Plain Text
    Duration : 1 h 40 min
    Bit rate : 57 b/s
    Count of elements : 1091
    Stream size : 42.4 KiB (0%)
    Title : SubViệt Mux
    Language : Vietnamese
    Default : Yes
    Forced : No

    Text #2
    ID : 5
    Format : VobSub
    Muxing mode : zlib
    Codec ID : S_VOBSUB
    Codec ID/Info : Picture based subtitle format used on DVDs
    Duration : 1 h 43 min
    Bit rate : 10.6 kb/s
    Count of elements : 1321
    Stream size : 7.87 MiB (0%)
    Language : English
    Default : No
    Forced : No

    Screenshots
    [​IMG]

    Bối cảnh của “Scary Stories To Tell In The Dark” diễn ra ở nước Mĩ vào năm 1968. Thời thế đang dần xoay chuyển nhưng dường như sự thay đổi ấy chẳng hề ảnh hưởng đến số đông cư dân ở thị trấn Mill Valley. Ở nơi đây, câu chuyện đầy ám ảnh về gia tộc Bellows vẫn được truyền miệng từ thế hệ này đến thế hệ khác. Khởi nguồn của những câu chuyện rùng rợn này bắt đầu từ căn biệt thự nằm ở vùng ven, trong căn nhà này cô bé Sarah Bellows đã phải chịu đựng một cuộc đời đau khổ, bị tra tấn bởi chính người thân trong gia đình. Sarah biến câu chuyện cuộc đời mình thành tư liệu cho tập truyện kinh dị. Tuy nhiên, bằng một cách kỳ bí nào đó, những câu chuyện ma quái này đã trở thành sự thật với nhóm thiếu niên đã vô tình phát giác ra căn hầm giam giữ Sarah Bellows. Liệu có cách nào để họ có thể thoát khỏi vòng xoáy những câu chuyện mà Sarah đã tạo nên?

    Tải phim thuyết minh - phụ đề mux sẵn:
    Nhấn nút Cảm ơn (dưới chân bài) để thấy link!
     

Chia sẻ trang này