[Kinh Dị ] Gaia 2021 1080p BluRay REMUX AVC DTS-HD MA.5.1-FGT - Đất Mẹ

Thảo luận trong 'Bluray Remux' bắt đầu bởi canodinh, 24/9/21.

  1. canodinh

    canodinh Well-Known Member

    Tham gia ngày:
    10/9/11
    Bài viết:
    617
    Đã được cảm ơn:
    4,518
    Gaia 2021 1080p BluRay REMUX AVC DTS-HD MA.5.1-FGT- Đất Mẹ

    [​IMG]



    Rating : 5.5/10 based on 2.6K user ratings

    Genres : Drama, Fantasy, Horror

    An injured forest ranger on a routine mission is saved by two off-the-grid survivalists. What is initially a welcome rescue grows more suspicious as the son and his renegade father reveal a cultish devotion to the forest.



    Trong một nhiệm vụ giám sát trong một khu rừng nguyên sinh, một nhân viên kiểm lâm công viên chạm trán với hai người sống sót theo lối sống hậu tận thế. Cậu bé và người cha triết học của mình dường như có tôn giáo riêng, và một mối quan hệ bí ẩn với thiên nhiên. Có nhiều khía cạnh đáng ngờ đối với sự tồn tại của họ, nhưng khi căn nhà gỗ bị tấn công bởi những sinh vật lạ, hậu nhân loại vào một đêm, cô biết rằng có một mối đe dọa lớn hơn trong vùng hoang dã mới nổi này. Gaia là một bộ phim giả tưởng kinh dị sinh thái liên quan đến những vấn đề nhức nhối của thời đại chúng ta.


    Video
    ID : 1
    ID in the original source medium : 4113 (0x1011)
    Format : AVC
    Format/Info : Advanced Video Codec
    Format profile : [email protected]
    Format settings : CABAC / 3 Ref Frames
    Format settings, CABAC : Yes
    Format settings, Reference frames : 3 frames
    Codec ID : V_MPEG4/ISO/AVC
    Duration : 1 h 36 min
    Bit rate mode : Variable
    Bit rate : 22.8 Mb/s
    Maximum bit rate : 40.0 Mb/s
    Width : 1 920 pixels
    Height : 1 080 pixels
    Display aspect ratio : 16:9
    Frame rate mode : Constant
    Frame rate : 24.000 FPS
    Color space : YUV
    Chroma subsampling : 4:2:0
    Bit depth : 8 bits
    Scan type : Progressive
    Bits/(Pixel*Frame) : 0.458
    Stream size : 15.4 GiB (91%)
    Language : English
    Default : No
    Forced : No
    Color range : Limited
    Color primaries : BT.709
    Transfer characteristics : BT.709
    Matrix coefficients : BT.709
    Original source medium : Blu-ray

    Audio
    ID : 2
    ID in the original source medium : 4353 (0x1101)
    Format : DTS XLL
    Format/Info : Digital Theater Systems
    Commercial name : DTS-HD Master Audio
    Codec ID : A_DTS
    Duration : 1 h 36 min
    Bit rate mode : Variable
    Bit rate : 2 197 kb/s
    Channel(s) : 6 channels
    Channel layout : C L R Ls Rs LFE
    Sampling rate : 48.0 kHz
    Frame rate : 93.750 FPS (512 SPF)
    Bit depth : 16 bits
    Compression mode : Lossless
    Stream size : 1.48 GiB (9%)
    Title : DTS-HD MA 5.1
    Language : English
    Default : Yes
    Forced : No
    Original source medium : Blu-ray

    Text
    ID : 3
    Format : UTF-8
    Codec ID : S_TEXT/UTF8
    Codec ID/Info : UTF-8 Plain Text
    Duration : 1 h 29 min
    Bit rate : 13 b/s
    Count of elements : 325
    Stream size : 8.73 KiB (0%)
    Title : SRT
    Language : English
    Default : Yes
    Forced : No

    Menu
    00:00:00.000 : Chapter 01
    00:07:49.791 : Chapter 02
    00:17:09.458 : Chapter 03
    00:26:21.375 : Chapter 04
    00:34:07.125 : Chapter 05
    00:43:40.958 : Chapter 06
    00:52:07.458 : Chapter 07
    01:01:37.083 : Chapter 08
    01:12:43.750 : Chapter 09
    01:16:59.000 : Chapter 10
    01:28:15.416 : Chapter 11
    01:33:25.375 : Chapter 12


    mhd

    720p https://www.hdvietnam.com/threads/kinh-di-gaia-2021-720p-bluray-x264-unveil-dat-me.1713989/

    1080p https://www.hdvietnam.com/threads/kinh-di-gaia-2021-1080p-bluray-x264-unveil-dat-me.1714056/

    Thuyết minh

    Remux

    ISO
     
    Chỉnh sửa cuối: 24/9/21

Chia sẻ trang này