[MULTI] Khám Phá Việt Nam - Bộ Sưu Tập Ấm Trà HDTV 1080p50 AAC 2.0-Wanara

Thảo luận trong 'Phim tài liệu - Documentaries' bắt đầu bởi wanara, 9/10/19.

  1. wanara

    wanara Well-Known Member

    Tham gia ngày:
    2/9/10
    Bài viết:
    1,206
    Đã được cảm ơn:
    27,862
    Giới tính:
    Nam
    Nơi ở:
    Việt Nam
    Khám Phá Việt Nam - Bộ Sưu Tập Ấm Trà
    HDTV 1080p50 AAC 2.0-Wanara

    [​IMG] [​IMG] [​IMG] [​IMG] [​IMG] [​IMG] [​IMG] [​IMG] [​IMG] [​IMG] [​IMG]

    Mã:

    [/COLOR][/SIZE][/CENTER][/COLOR][/SIZE][/CENTER]
    
    	

    [SIZE=3][COLOR=#000000] [CENTER][SIZE=3][COLOR=#000000][CENTER]General Complete name : C:\Users\Admin\Desktop\Kham Pha Viet Nam - Bo Suu Tap Am Tra HDTV 1080p50 AAC 2.0\Kham Pha Viet Nam - Bo Suu Tap Am Tra HDTV 1080p50 AAC 2.0.mp4 Format : MPEG-4 Format profile : Base Media Codec ID : isom (isom/iso2/avc1/mp41) File size : 685 MiB Duration : 11 min 41 s Overall bit rate mode : Variable Overall bit rate : 8 195 kb/s Encoded date : UTC 2019-10-08 18:08:17 Tagged date : UTC 2019-10-08 18:08:17 Writing application : Lavf58.30.100 Video ID : 1 Format : AVC Format/Info : Advanced Video Codec Format profile : [email protected] Format settings : CABAC / 4 Ref Frames Format settings, CABAC : Yes Format settings, Reference : 4 frames Codec ID : avc1 Codec ID/Info : Advanced Video Coding Duration : 11 min 41 s Bit rate mode : Constant Bit rate : 8 000 kb/s Width : 1 920 pixels Height : 1 080 pixels Display aspect ratio : 16:9 Frame rate mode : Constant Frame rate : 50.000 FPS Color space : YUV Chroma subsampling : 4:2:0 Bit depth : 8 bits Scan type : Progressive Bits/(Pixel*Frame) : 0.077 Stream size : 669 MiB (98%) Encoded date : UTC 2019-10-08 18:08:17 Tagged date : UTC 2019-10-08 18:08:17 Color range : Limited Color primaries : BT.709 Transfer characteristics : BT.709 Matrix coefficients : BT.709 Codec configuration box : avcC Audio ID : 2 Format : AAC LC Format/Info : Advanced Audio Codec Low Complexity Codec ID : mp4a-40-2 Duration : 11 min 40 s Duration_LastFrame : -5 ms Bit rate mode : Variable Bit rate : 192 kb/s Channel(s) : 2 channels Channel layout : L R Sampling rate : 48.0 kHz Frame rate : 46.875 FPS (1024 SPF) Compression mode : Lossy Stream size : 15.9 MiB (2%) Default : Yes Alternate group : 1 Encoded date : UTC 2019-10-08 18:08:17 Tagged date : UTC 2019-10-08 18:08:17



    Bộ sưu tập hơn 400 ấm trà của nhà thơ Vương Tâm và tương lai sẽ nhiều hơn số đó :)
    [​IMG]
    [​IMG]
    [​IMG]
    [​IMG]
     
    Chỉnh sửa cuối: 9/10/19
  2. tlamhp

    tlamhp Well-Known Member

    Tham gia ngày:
    23/7/12
    Bài viết:
    1,116
    Đã được cảm ơn:
    1,104
    Giới tính:
    Nam
    Nghề nghiệp:
    Housekeeper
    Nơi ở:
    Oakland CA USA
    Chủ đề này độc đáo quá. Xin cảm ơn đã chia sẻ.
     
    QUANG ĐĂNG NGỌC cảm ơn bài này.
  3. tungdesign

    tungdesign Active Member

    Tham gia ngày:
    17/4/09
    Bài viết:
    449
    Đã được cảm ơn:
    46
    Giới tính:
    Nam
    Nghề nghiệp:
    Thiết kế - In ấn
    Nơi ở:
    Quận 3
    ths chủ thớt...mình cũng thích ấm trà.
     
    QUANG ĐĂNG NGỌC cảm ơn bài này.
  4. tlamhp

    tlamhp Well-Known Member

    Tham gia ngày:
    23/7/12
    Bài viết:
    1,116
    Đã được cảm ơn:
    1,104
    Giới tính:
    Nam
    Nghề nghiệp:
    Housekeeper
    Nơi ở:
    Oakland CA USA
    CHỉ tiếc là phim hơi ngắn, hơi sơ sài chút. Lỗi của người làm phim.
     
    QUANG ĐĂNG NGỌC cảm ơn bài này.
  5. wanara

    wanara Well-Known Member

    Tham gia ngày:
    2/9/10
    Bài viết:
    1,206
    Đã được cảm ơn:
    27,862
    Giới tính:
    Nam
    Nơi ở:
    Việt Nam
    Cập nhật link các host :)
     
    QUANG ĐĂNG NGỌC and tlamhp like this.

Chia sẻ trang này