Hướng dẫn sử dụng EAC (Exact Audio Copy) để BURN/RIP AudioCD

Thảo luận trong 'Lossless Albums' bắt đầu bởi arryo, 10/12/09.

  1. arryo

    arryo Active Member

    Tham gia ngày:
    7/7/08
    Bài viết:
    890
    Đã được cảm ơn:
    72
    Hiện nay mình thấy rất nhiều bạn rip nhạc theo nhiều kiểu khác nhau, bạn thì dùng dbpoweramp, bạn thì dùng Windows Media Player, bạn thì dùng Audio extract gì đấy. Mình k có điều kiện mua nhạc Việt nam nên rất hay down về nghe đỡ hậu quả là rất nhiều bài bị lỗi, nếu báo với uploader kịp thời thì họ đi rip lại còn không thì để đó, bởi vậy phần nhiều mình down về, nghe 1 hoặc 2 lần là xóa luôn.

    Trong bài này mình sẽ giới thiệu cách rip nhạc sử dụng EAC (Exact Audio Copy) để rip xuống thành FLAC. Mình đọc trong forum và trong comment của nhiều bạn bảo là chỉ thích down nhạc ở dạng WAV thôi, điều này thật là lãng phí nguồn lực và không cần thiết, nhất là nhiều bản RIP ra WAV từ những chương trình không đáng tin cậy, không có log, thì thà down mp3 V0 về nghe còn thích hơn. Nếu bạn nào chỉ thích WAV thì bỏ phần lựa chọn xóa file WAV sau khi nén thành FLAC là xong. Vì cơ cấu hoạt động của EAC là đưa file về dạng WAV trước rồi mới nén tiếp thành FLAC mà.

    EAC là phần mềm rip nhạc tốt nhất cho Windows/Unix hiện nay. Ưu điểm của phần mềm này là rip "bit by bit" nên sẽ đảm bảo âm thanh ra như đĩa gốc (đúng như tên gọi), và nếu được rip từ đĩa gốc thì khi burn ra âm thanh sẽ y như đĩa gốc. Ngoài ra EAC còn kết hợp với Accurate Rip, thông qua việc thiết lập CD Drive Offsets để cho ra những bản rip error free. Nhược điểm của EAC (và là ưu điểm của những phần mềm khác) là chẳng may CD bị trầy xước một tí thôi thì sẽ không rip được luôn, hoặc là rip được mà bản log sẽ không được 100% nữa.

    Nếu rip theo đúng hướng dẫn này thì bảo đảm các bản rip của bạn chất lượng hoàn hảo, nếu up lên WAFFLES.FM thì được đóng dấu huy chương vàng Wafflres Iron, nếu up lên WHAT.CD thì sẽ được đóng dấu log (100%). WAFFLES.FM và WHAT.CD là 2 music tracker lớn nhất hiện nay. Đọc thêm về các Music Trackers ở đây: http://hdvietnam.com/diendan/showthread.php?p=343516

    Waffles Iron (WI) Torrent là torrent có huy chương màu vàng
    [​IMG]


    Log (100%) torrent trên what.cd
    [​IMG]

    Phần mềm cần thiết:
    - EAC, verson mới nhất là V0.99 prebeta 5, có thể download ở đây: Download Exact Audio Copy

    - Flac frontend (optional): từ version prebeta 4 trở đi là FLAC đã được built in luôn trong EAC, tuy nhiên mình vẫn dùng chương trình FLAC trực tiếp nên cài vào. Download ở đây: Download FLAC-Free Lossless Audio Codec from SourceForge.net

    -Dbpoweramp: Phần mềm này dùng để convert ra file wav (và các định dạng khác), thực ra là dùng Flac Frontend cũng được , nhưng mình dùng cái này vì giao diện dễ dùng. Download ở đây. Chú ý lúc install thì install phần chính trước và install plugin FLAC để nó hiểu được file FLAC. Tương tự nếu bạn muốn nó hiểu được thêm các định dạng khác thì chỉ cần cài các plugins đi kèm.

    Sau khi download các phần này về, cứ để install theo default có sẵn rồi sẽ thiết lập cấu hình sau.

    Bây giờ, bạn bỏ một đĩa CD mà bạn định nén vào và chuẩn bị thiết lập cấu hình cho EAC, cấu hình này sẽ dùng cho cả nén và burn.

    Phần 1: Thiết lập cấu hình

    Bước 1: Freedb/Database Option

    Bước này giúp cho EAC tự đọc thông tin của CD truy xuất từ freedb, đa phần các CD mình rip thì đều có trong thư viện của freedb cả. Theo như nhiều bài mình đọc thì cũng có khá nhiều CD của Việt Nam được người dùng tự nhập vào rồi.

    Nhấn F12, màn hình hiện ra như sau

    [​IMG]

    Your e-mail adress: Bạn điền bất kỳ email nào vào cũng được, như của mình, mình chỉ đơn giản điền [email protected]

    Sau đó nhấn Get active freedb server list, chờ một tí sẽ thấy trong phần Freedb server sẽ hiện ra server của freedb

    Bước 2: EAC Options (nhấn F9)

    Tab Extraction:

    Đánh dấu chọn theo hình:

    [​IMG]

    Cụ thể như sau:
    * Fill up missing offset samples with silence: Chọn
    * No use of null samples for CRC calculations : Không chọn
    * Synchronize between tracks: Chọn
    * Delete leading and trailing silent blocks: Không chọn
    * Skip track extraction on read or sync errors: Không chọn
    * Error recovery quality: High

    Tab General:

    * On unknown CDs: Chọn
    * Chọn automatically access freedb database
    * Use language: English
    * Wait for external compressors: Chọn

    [​IMG]

    Tab Tools:

    * Retrieve UPC/ISRC codes in CUE sheet generation: Bỏ chọn
    * Use CD-Text information in CUE sheet generation: Chọn
    * Create '.m3u' playlist on extraction: Chọn
    * Write m3u playlist with extended information: Bỏ chọn
    * Automatically write status report after extraction: Chọn
    * Do not open external compressor window: Chọn
    * Bỏ chọn 2 chức năng cuối cùng

    [​IMG]

    Tab Normalize: Bỏ chọn Normalize

    Tab Filename:

    Phần này khá quan trọng trong việc upload và quản lý trong tracker.

    Tên Folder: Tên ca sĩ - Tên album (năm) [định dạng] {phụ chú, thường là hãng xuất bản}

    - VD: Mỹ Linh - Cho Một Người Tình Xa (1996) [FLAC] {dihavina}

    Tên bài hát: Số thứ tự - Tên bài

    - VD: 01 - Em ơi Hà Nội phố

    Nếu album với nhiều ca sĩ khác nhau thì nên đặt như sau:

    Folder: Various Artists - Tên album (năm) [định đạng] {phụ chú}

    - VD: Various Artists - Phú Quang, Một Dại Khờ Một Tôi (1997) [FLAC] {dihavina}

    Bài hát: Số thứ tự - Ca sĩ - Tên bài hát

    - VD: 01 - Lê Dung - Điều giản dị

    Để EAC tự làm được điều này thì làm theo hình sau:

    [​IMG]

    - Trong khung Naming scheme: %D - %C (%Y) [FLAC]\%N - %T
    - Trong khung Use various artist naming scheme: Various Artists - %C (%Y) [FLAC]\%N - %A - %T

    Tab Directories: Chọn Use this directory và đưa folder bạn dự định sẽ chứa file rip vào:

    [​IMG]

    Nhấn OK, xong phần EAC Options.

    Bước 3: Drive Option (nhấn F10)

    Tab Extraction Method:

    Bắt buộc phải chọn Secure modes

    * Drive has 'Accurate Stream' feature: Chọn
    * Drive caches audio data: Chọn
    * Drive is capable of retrieving C2 error information: Bỏ chọn

    [​IMG]

    Tab Offset/Speed:

    * Use read sample offset correction: Chọn
    Khi đã chọn Accurate Rip thì thường ổ CD của bạn sẽ được tự động cập nhật và số offset sẽ tự hiện lên. Bạn có thể xem giá trị Offset cho các loại ổ ở trang sau: Digital Audio Extraction
    * Overread into Lead-In and Lead-Out: Bỏ chọn
    * Allow speed reduction during extraction: Chọn
    * CD-Text Read capable drive: Chọn
    * Use AccurateRip with this drive: Chọn (Cái này quan trọng)

    [​IMG]

    Các bạn chú ý, để kích hoạt được Use Accuraterip with this drive thì bắt buộc bạn phải cho 1 CD bất kỳ vào. Khi mình chưa bỏ CD nào vào hết thì chức năng đấy bị mờ:

    [​IMG]

    Khi bạn bỏ 1 CD vào, EAC sẽ kiểm tra xem cái đĩa của bạn có nằm trong cơ sở dữ liệu của Accurate Rip hay không, nếu có EAC tự động tìm giá trị Offset cho ổ quang của bạn và chức năng Accurate rip được bật như theo hình. NẾu CD của bạn chưa có trong database thì bạn phải lần lượt bỏ vào các đĩa khác vào (khuyến khích dùng đĩa ngoại vì xác suất đĩa ngoại nằm trong cơ sở dữ liệu của Accurate Rip cao hơn) cho đến khi nào accurate rip được bật thì thôi.

    [​IMG]

    Bạn nhớ nhấn configure chứ đừng nhấn close, mất khoảng 5'-10' để cho máy config, sau khi config xong, nếu bạn thấy một bảng như thế này có nghĩa là Accurate RIp đã được kích hoạt

    [​IMG]

    Kiểm tra lại phần accurate rip trong configuration cua EAC:

    [​IMG]

    Và như các bạn thấy, chức năng đó đã hết mờ và hiện lên đúng các giá trị offset

    Như vậy kết luận tạm thời lý do nếu bạn không bật được accurate rip là có lẽ là:

    - bạn chưa cho CD vào khi thực hiện configurations
    - Bạn cho CD vào nhưng khi bảng accurate configure hiện ra, các bạn nhấn close thay vì nhấn configure
    - Ổ optical drive của bạn không support chức năng accurate rip

    Tab Gap Detection:

    * Gap/Index retrieval method: Mục đích của phần này là để EAC xác định khoảng lặng giữa các bài hát. Nên thử cả 3 phương pháp (A,B,C) mỗi phương pháp 3 lần. Mỗi lần đều phải cho ra thời gian giống nhau. Cách thử như sau, cho một CD vào, nhấn F4, ghi nhận thời gian GAP, bật ổ đĩa ra cho vào lại, nhấn F4 tiếp, ghi nhận thời gian GAP, so sánh với lần đầu, rồi làm tiếp thêm một lần nữa. Phương pháp nào cho ra cả 3 lần đều như nhau thì chọn phương pháp đó
    * Detection accuracy: Bắt buộc phải chọn Secure

    [​IMG]

    Bước 4: Compression Options (Nhấn F11)

    Tab External Compression:

    * Use external program for compression: Chọn
    * Parameter passing scheme: User Definied Encoder
    * Use file extension: .flac
    * Program, including path, used for compression: Đường dẫn đến file flac.exe. Nếu bạn dùng FLAC built in trong EAC thì sẽ là: C:\Program Files\Exact Audio Copy\Flac\flac.exe
    * Additional commandline options:
    Mức độ nén phải trên 5. Mức độ 8 là mức độ hiện nay mình đang dùng. Tùy chọn này sẽ cho phép bạn nén một album với tag đầy đủ. Ở một số lossless tracker, phải dùng tùy chọn này nếu muốn bản rip của mình được đóng nhãn hiệu Properly Tagged Flac (PTF) [​IMG]

    -8 -V -T "ARTIST=%a" -T "TITLE=%t" -T "ALBUM=%g" -T "DATE=%y" -T "TRACKNUMBER=%n" -T "TOTALTRACKS=%x" -T "GENRE=%m" -T "ALBUM ARTIST=%v" -T "ALBUMARTIST=%v" -T "COMMENT=EAC V0.99 prebeta 5, Secure Mode, Test & Copy, AccurateRip, FLAC -8" %s

    * Bitrate: Gì cũng được
    * Delete WAV after compression: Chọn (Hoặc bỏ chọn nếu các bạn thích lưu file WAV)
    * Use CRC check: Chọn
    * Add ID3 Tag: Bỏ chọn (Đã chọn tag trong FLAC rồi)
    * High quality/low quality: Không quan trong, gì cũng được, high quality nghe cho có vẻ chất lượng cao
    * Check for external programs return code: Chọn

    [​IMG]

    nhấn OK xong xuôi, bạn nhìn xuống phía dưới SAVE cấu hình lại, đặt tên là HDVNBITs chẳng hạn, như vậy lần sau khi muốn rip đĩa chỉ cần bỏ vào là rip thôi

    Phần 2: Quá trình rip (Nén) đĩa

    Khi bạn cho CD vào thì EAC sẽ tự động lấy thông tin từ freedb, nếu một album có nhiều lựa chọn, chẳng hạn như album mình đang dùng làm ví dụ, thì chọn cái nào bạn thấy thích hợp nhất

    [​IMG]

    Chọn xong thì tên album, tên bài hát sẽ hiện ra như sau:

    [​IMG]

    Đối với một số album, nhất là album Việt Nam, nếu chưa được người sử dụng đưa vào database thì sẽ không hiện ra tên bài hát, tên album, vv. Lúc này ta cần phải thêm những thông tin ấy vào. Thông tin cần phải đưa vào là CD Tittle, CD Artist, Year, và Title

    Như album dưới đây mình rip mà không có thông tin nên mình tự điền vào:

    [​IMG]

    Lưu ý đối với những album do nhiều người hát thì khi điền vào phải điền theo thứ tự Tên ca sĩ / Tên bài hát và đánh dấu vào ô phần Various Artists như sau:

    [​IMG]

    Các bạn để ý cột Gap sẽ thấy giá trị hiện thời là unknown cho các bài hát, tức là khoảng lặng giữa các bài hát chưa được xác định.

    - Nhấn F4, chờ một tí sẽ hiện ra như sau:

    [​IMG]

    - Vào Action --> Creat CUE Sheet --> Multiple WAV files with Gaps... (Non Compliant)

    [​IMG]

    - Nhấn Ctrl+A để chọn tất cả bài hát, và nhất Shift + F6 bắt đầu quá trình nén. Chờ khoảng 20-30' tùy CD và tùy cấu hình máy, có album mình nén phải gần 4h mới xong, he he

    - Sau khi nén xong, kiểm tra số Read CRC và Test CRC có trùng nhau hay không, kiểm tra cột CRC có hiện lên OK hay không. Như album mình vừa nén, thế là OK hết

    [​IMG]

    Chắc ăn nữa, vào thư mục mình chứa nhạc vừa nén đọc file log, mình thì đọc file log thường xuyên hơn. Khi nén xong phải đảm bảo có những file sau bên cạnh file FLAC :

    - File .log
    - File .cue
    - File .m3u

    Mình đính kèm một phần file log cho mọi người tham khảo.

    Mã:
    Exact Audio Copy V0.99 prebeta 5 from 4. May 2009
    
    EAC extraction logfile from 15. November 2009, 13:30
    
    Yo-Yo Ma & Bobby McFerrin / Hush
    
    Used drive  : PLEXTOR DVDR   PX-800A   Adapter: 0  ID: 0
    
    Read mode               : Secure
    Utilize accurate stream : Yes
    Defeat audio cache      : Yes
    Make use of C2 pointers : No
    
    Read offset correction                      : 48
    Overread into Lead-In and Lead-Out          : No
    Fill up missing offset samples with silence : Yes
    Delete leading and trailing silent blocks   : No
    Null samples used in CRC calculations       : Yes
    Used interface                              : Native Win32 interface for Win NT & 2000
    Gap handling                                : Appended to previous track
    
    Used output format              : User Defined Encoder
    Selected bitrate                : 128 kBit/s
    Quality                         : High
    Add ID3 tag                     : No
    Command line compressor         : C:\Program Files (x86)\FLAC\flac.exe
    Additional command line options : -8 -V -T "ARTIST=%a" -T "TITLE=%t" -T "ALBUM=%g" -T "DATE=%y" -T "TRACKNUMBER=%n" -T "TOTALTRACKS=%x" -T "GENRE=%m" -T "ALBUM ARTIST=%v" -T "ALBUMARTIST=%v" -T "COMMENT=EAC V0.99 prebeta 5, Secure Mode, Test & Copy, Accurat
    
    
    TOC of the extracted CD
    
         Track |   Start  |  Length  | Start sector | End sector 
        ---------------------------------------------------------
            1  |  0:00.00 |  3:54.55 |         0    |    17604   
            2  |  3:54.55 |  4:03.00 |     17605    |    35829   
            3  |  7:57.55 |  1:08.52 |     35830    |    40981   
            4  |  9:06.32 |  4:04.08 |     40982    |    59289   
            5  | 13:10.40 |  2:36.12 |     59290    |    71001   
            6  | 15:46.52 |  6:26.20 |     71002    |    99971   
            7  | 22:12.72 |  4:12.70 |     99972    |   118941   
            8  | 26:25.67 |  2:51.70 |    118942    |   131836   
            9  | 29:17.62 |  2:37.08 |    131837    |   143619   
           10  | 31:54.70 |  2:37.62 |    143620    |   155456   
           11  | 34:32.57 |  5:38.25 |    155457    |   180831   
           12  | 40:11.07 |  5:11.60 |    180832    |   204216   
           13  | 45:22.67 |  1:11.08 |    204217    |   209549   
    
    
    Track  1
    
         Filename F:\My Music\EacRips\01 - Grace.wav
    
         Pre-gap length  0:00:02.00
    
         Peak level 24.3 %
         Track quality 100.0 %
         Test CRC 1DB9EBC1
         Copy CRC 1DB9EBC1
         Accurately ripped (confidence 10)  [C9C2A1E1]
         Copy OK
    
    Track 13
    
         Filename F:\My Music\EacRips\13 - Good-bye.wav
    
         [color=red]Pre-gap length  0:00:00.26[/color]
    
         Peak level 20.2 %
         Track quality 100.0 %
         [color=red]Test CRC 44CFF266
         Copy CRC 44CFF266[/color]
         Accurately ripped (confidence 8)  [F24592B8]
         Copy OK
    
    
    [color=red]All tracks accurately ripped
    
    No errors occurred[/color]
    
    End of status report
    
    Phần đánh dấu đỏ là phần phải quan tâm khi đọc file log. Rồi vậy là hoàn thiện quá trình nén đĩa. Vy vọng bài này sẽ giúp các bạn rip đĩa đạt chất lượng tốt nhất.

    Trong quá trình rip đĩa, có trục trặc gì hoặc có câu hỏi gì thì bạn có thể post log của bạn lên, nếu được thì post cả file cue, để mình support dễ hơn.

    Phần 3: Quá trình burn đĩa

    Nếu các bạn chỉ muốn burn những file FLAC riêng lẻ thành một CD, hoặc nếu các bạn là người dễ tính, chỉ cần một phần mềm burn file FLAC nhanh gọn lẹ, chất lượng vừa phải, thì chỉ cần dùng phần mềm burrrn. Nhưng nếu các bạn là người kỹ tính, đòi hỏi album burn ra giống y như đĩa gốc thì chỉ còn cách sử dụng EAC, đổi lại là sẽ mất thời gian hơn một tí. Trong bài hướng dẫn này, mình chỉ hướng dẫn các bạn sử dụng EAC để burn đối với các file FLAC có file CUE đi kèm mà thôi. Còn nếu không có thì dùng burrrn vậy nhé, hoặc nếu các bạn vẫn muốn dùng EAC thì phải tạo file CUE (sẽ đề cập đến nếu ai có nhu cầu)

    Bước 1: Convert các file FLAC thành WAV

    Bạn có thể dùng FLAC frontend hoặc dùng dbpoweramp. Mình dùng dbpoweramp thường xuyên hơn nên mình sẽ hướng dẫn dựa trên dbpoweramp nhé. Sau khi đã cài dbpoweramp vào rồi, bạn vào folder chứa album mình cần burn, đánh dấu tất cả file FLAC, nhấp chuột phải, sẽ có một bảng hiện ra như sau:

    [​IMG]

    Chọn convert to, lúc này màn hình của dbpoweramp sẽ hiện ra với các lựa chọn. Trong ô đầu tiên: converting to, bạn chọn Wave và nhấn convert. Lưu ý trong phần Output location bạn nên để file WAV nằm chung folder với các file FLAC và file CUE của bạn

    [​IMG]

    Bước 2: Đưa file CUE và edit file CUE (nếu cần thiết)

    Yêu cầu: Bạn phải configure EAC như ở phần 1, quan trọng nhất là offset value, giá trị này đúng thì sản phẩm tạo ra mới được coi là giống y đĩa gốc.

    Bây giờ, bạn cho một CD-R trắng vào, khởi động EAC và nhấn Alt+W, hoặc vào Tools, chọn write CD-R:

    [​IMG]

    Một bảng CD Layout Editor sẽ hiện ra như sau:

    [​IMG]

    Vào File --> Load Cue sheet:

    [​IMG]

    Lúc này bạn sẽ chỉ đến file CUE hiện đang nằm trong cùng thư mục với các file WAV

    Khi mở file CUE ra, thường sẽ có bảng thông báo lỗi như sau:

    [​IMG]

    Chuyện này bình thường vì người rip đặt tên album khác nhau, sau đó mình download về sửa tên album hay gì đó, nói chung là không vấn đề gì. Bây giờ ta phải sửa lại cho hết lỗi đi (bước này lâu nhất). Vì mình đã để tất cả các files trong cùng một thư mục rồi nên như trong ví dụ của mình, mình chỉ cần delete cái tên folder tương ứng với từng track đi thôi.

    [​IMG]

    Delete lần lượt cho tất cả các track, sau đó nhấn OK, lúc này cái CD layout Editor hiện ra với tên track, số thứ tự, etc.

    [​IMG]

    Kiểm tra lại xem có đúng hay chưa, nếu đúng hết rồi thì vào CD-R --> Write CD. Sẽ có một bảng CD Write Options hiện ra

    [​IMG]

    Trong phần write speed (tốc độ ghi) nên chọn tốc độ thấp nhất, và nhấn Make It So. Xong rồi đấy, chờ một tí là sẽ ra thành phẩm thôi.

    12/01/2010
     
    Chỉnh sửa cuối: 17/1/10
  2. arryo

    arryo Active Member

    Tham gia ngày:
    7/7/08
    Bài viết:
    890
    Đã được cảm ơn:
    72
    Ðề: Hướng dẫn Rip nhạc sử dụng EAC (Exact Audio Copy)

    Album mình dùng làm ví dụ đã được up lên hdvnbits, mọi người có thể download về tham khảo về log, cue, m3u cùng cấu trúc của folder cũng như cách đặt tên folder cho phù hợp. Cách đặt tên như này rất hợp lý và rất tiện trong việc quản lý lượng nhạc lớn trong máy tính.

    [​IMG]


    DOWNLOAD


    Đối với những box set thì nên để cấu trúc file như sau

    Folder chính: Tên ca sĩ - Tên album (năm) {định dạng}

    Nếu có 3 CD thì đặt thêm 3 folder:

    CD1of3
    CD2of3
    CD3of3
    Và một folder để hình scan, có thể đặt tên là Artwork

    Trong 3 folders này chỉ nên chứa file FLAC, Cue, Log

    Như vậy thành phần trong folder chính sẽ như sau:
    - 1 file info.txt
    - 1 file combined.log (nối tất cả các file logs của 3 album lại)
    - Cover.jpg (hình của box)
    - Folder CD1of3
    - Folder CD2of3
    - Folder CD3of3
    - Folder Artwork

    Ví dụ một torrent như vậy:

    [​IMG]

    DOWNLOAD

    Bạn nào không có account thì để email lại, mình sẽ invite
     
    Chỉnh sửa cuối: 10/12/09
    manro, truongnxu and thuanphat like this.
  3. ngonngon

    ngonngon Member

    Tham gia ngày:
    26/9/09
    Bài viết:
    45
    Đã được cảm ơn:
    2
    Ðề: Hướng dẫn Rip nhạc sử dụng EAC (Exact Audio Copy)

    Sao cái Use AccurateRip with this drive của mình nó ko hiện lên để chọn nhỉ????
     
    kimbinhHN cảm ơn bài này.
  4. cunconquay

    cunconquay New Member

    Tham gia ngày:
    14/1/09
    Bài viết:
    4
    Đã được cảm ơn:
    2
    Ðề: Hướng dẫn Rip nhạc sử dụng EAC (Exact Audio Copy)

    Cam on ban nhìu lắm mình đã làm theo và rip Ok,
    Tiện đây tặng các bạn nào hơi lười cái profile mình làm theo Aryo, chép vào thư mục profile của EAC rồi rip thôi

    http://rapidshare.com/files/321669663/EAC_Profiles.rar.html
     
    kimbinhHN cảm ơn bài này.
  5. hd248

    hd248 New Member

    Tham gia ngày:
    12/12/09
    Bài viết:
    47
    Đã được cảm ơn:
    1
    Ðề: Hướng dẫn Rip nhạc sử dụng EAC (Exact Audio Copy)

    Thank bạn, trước giờ mình chỉ rip bằng wmp :D
     
  6. arryo

    arryo Active Member

    Tham gia ngày:
    7/7/08
    Bài viết:
    890
    Đã được cảm ơn:
    72
    Ðề: Hướng dẫn Rip nhạc sử dụng EAC (Exact Audio Copy)

    Thanks bác đã post cái profile cho mọi người dễ dùng, nhưng mà lưu ý là mọi người bắt buộc phải sửa lại phần offset vì offset value mỗi CD-Rom mỗi khác. Trừ phi CD-Rom giống hệt CD-rom của bác thì mới không phải sửa.

    [​IMG]

    Các bác sau khi copy profile vào rồi nhớ kiểm tra các giá trị xem đã đúng chưa nhé
     
  7. arryo

    arryo Active Member

    Tham gia ngày:
    7/7/08
    Bài viết:
    890
    Đã được cảm ơn:
    72
    Ðề: Hướng dẫn Rip nhạc sử dụng EAC (Exact Audio Copy)

    Có thể có 2 lý do:

    - Một là bác chưa bỏ 1 CD vào
    - HOặc là CD-Rom của bác cũ quá, ngay cả khi bỏ CD vào rồi nó vẫn không hiện ra offset value (cái này quyết định accurate rip), khi đó bác phải tự xác địn offset value theo link sau:

    http://users.fulladsl.be/spb2267/offsets/offsets.htm

    hope this helps

     
  8. nualinhhonsau

    nualinhhonsau New Member

    Tham gia ngày:
    13/8/09
    Bài viết:
    15
    Đã được cảm ơn:
    2
    Ðề: Hướng dẫn Rip nhạc sử dụng EAC (Exact Audio Copy)

    Mình có rip thử 1 cd bác xem như vậy thì chất lượng thế nào? Mà sao thông tin bài hát tùm lum vậy?

    Mã:
    Exact Audio Copy V0.99 prebeta 5 from 4. May 2009
    
    EAC extraction logfile from 1. January 2010, 14:28
    
    Various / Duong Xua Loi Cu
    
    Used drive  : TSSTcorpCD/DVDW SH-S182F   Adapter: 0  ID: 0
    
    Read mode               : Secure
    Utilize accurate stream : Yes
    Defeat audio cache      : Yes
    Make use of C2 pointers : No
    
    Read offset correction                      : 6
    Overread into Lead-In and Lead-Out          : No
    Fill up missing offset samples with silence : Yes
    Delete leading and trailing silent blocks   : No
    Null samples used in CRC calculations       : Yes
    Used interface                              : Native Win32 interface for Win NT & 2000
    Gap handling                                : Not detected, thus appended to previous track
    
    Used output format              : User Defined Encoder
    Selected bitrate                : 112 kBit/s
    Quality                         : High
    Add ID3 tag                     : No
    Command line compressor         : C:\Program Files\Exact Audio Copy\Flac\flac.exe
    Additional command line options : -8 -V -T "ARTIST=%a" -T "TITLE=%t" -T "ALBUM=%g" -T "DATE=%y" -T "TRACKNUMBER=%n" -T "TOTALTRACKS=%x" -T "GENRE=%m" -T "ALBUM ARTIST=%v" -T "ALBUMARTIST=%v" -T "COMMENT=EAC V0.99 prebeta 5, Secure Mode, Test & Copy, Accurat
    
    
    TOC of the extracted CD
    
         Track |   Start  |  Length  | Start sector | End sector 
        ---------------------------------------------------------
            1  |  0:00.00 |  5:33.62 |         0    |    25036   
            2  |  5:33.62 |  5:02.14 |     25037    |    47700   
            3  | 10:36.01 |  4:07.69 |     47701    |    66294   
            4  | 14:43.70 |  4:29.16 |     66295    |    86485   
            5  | 19:13.11 |  4:46.66 |     86486    |   108001   
            6  | 24:00.02 |  3:33.14 |    108002    |   123990   
            7  | 27:33.16 |  5:50.32 |    123991    |   150272   
            8  | 33:23.48 |  4:30.71 |    150273    |   170593   
            9  | 37:54.44 |  3:54.47 |    170594    |   188190   
    
    
    Track  1
    
         Filename C:\Documents and Settings\PC\My Documents\My Music\Various Artists - Duong Xua Loi Cu (2009) [FLAC]\ 01 - Duong xua loi cu - Duong xua loi cu.wav
    
         Peak level 98.8 %
         Track quality 100.0 %
         Test CRC EFCE81C5
         Copy CRC EFCE81C5
         Copy OK
    
    Track  2
    
         Filename C:\Documents and Settings\PC\My Documents\My Music\Various Artists - Duong Xua Loi Cu (2009) [FLAC]\ 02 - Ruoc tinh ve voi que huong - Ruoc tinh ve voi que huong.wav
    
         Peak level 98.8 %
         Track quality 99.9 %
         Test CRC F5E6965A
         Copy CRC F5E6965A
         Copy OK
    
    Track  3
    
         Filename C:\Documents and Settings\PC\My Documents\My Music\Various Artists - Duong Xua Loi Cu (2009) [FLAC]\ 03 - Bai ca dao dau doi - Bai ca dao dau doi.wav
    
         Peak level 100.0 %
         Track quality 100.0 %
         Test CRC 07A718F9
         Copy CRC 07A718F9
         Copy OK
    
    Track  4
    
         Filename C:\Documents and Settings\PC\My Documents\My Music\Various Artists - Duong Xua Loi Cu (2009) [FLAC]\ 04 - Muc Anh Trang vang - Wav..wav
    
         Peak level 98.8 %
         Track quality 100.0 %
         Test CRC F9EB4944
         Copy CRC F9EB4944
         Copy OK
    
    Track  5
    
         Filename C:\Documents and Settings\PC\My Documents\My Music\Various Artists - Duong Xua Loi Cu (2009) [FLAC]\ 05 - Huong toc ma non - Huong toc ma non.wav
    
         Peak level 98.8 %
         Track quality 99.9 %
         Test CRC FC2781BD
         Copy CRC FC2781BD
         Copy OK
    
    Track  6
    
         Filename C:\Documents and Settings\PC\My Documents\My Music\Various Artists - Duong Xua Loi Cu (2009) [FLAC]\ 06 - Hinh anh nguoi em khong doi - Wav..wav
    
         Peak level 98.8 %
         Track quality 99.9 %
         Test CRC 8B967E17
         Copy CRC 8B967E17
         Copy OK
    
    Track  7
    
         Filename C:\Documents and Settings\PC\My Documents\My Music\Various Artists - Duong Xua Loi Cu (2009) [FLAC]\ 07 - Duyen - Que.wav
    
         Peak level 98.8 %
         Track quality 100.0 %
         Test CRC 63E0B82F
         Copy CRC 63E0B82F
         Copy OK
    
    Track  8
    
         Filename C:\Documents and Settings\PC\My Documents\My Music\Various Artists - Duong Xua Loi Cu (2009) [FLAC]\ 08 - Hinh bong que nha  Van Khanh - Hinh bong que nha  Van Khanh.wav
    
         Peak level 100.0 %
         Track quality 99.9 %
         Test CRC CC90F053
         Copy CRC CC90F053
         Copy OK
    
    Track  9
    
         Filename C:\Documents and Settings\PC\My Documents\My Music\Various Artists - Duong Xua Loi Cu (2009) [FLAC]\ 09 - Tup leu ly tuong - Tup leu ly tuong.wav
    
         Peak level 98.8 %
         Track quality 100.0 %
         Test CRC 9C2E78E2
         Copy CRC 9C2E78E2
         Copy OK
    
    No errors occurred
    
    End of status report
    
     
  9. arryo

    arryo Active Member

    Tham gia ngày:
    7/7/08
    Bài viết:
    890
    Đã được cảm ơn:
    72
    Ðề: Hướng dẫn Rip nhạc sử dụng EAC (Exact Audio Copy)

    Có một bước quan trọng là Gap Detection mà bác chưa làm. Bác chỉ cần nhấn F4 trước khi tạo Cue và nhấn shift+F6 là OK rồi

    Còn về bài hát tên tùm lum là vì đây là album various artists mà bác lại không cho tên ca sĩ vào nên nó hiểu là vậy. Bác tham khảo cái EAC của em cho một album như vậy nhé:

    [​IMG]

    Em sẽ cập nhật thêm vào bài viết. Nếu bác có thời giờ, mong bác edit lại thông tin ca sĩ, rip lại và share lên với chúng em ạ.

    Cám ơn bác
     
  10. nualinhhonsau

    nualinhhonsau New Member

    Tham gia ngày:
    13/8/09
    Bài viết:
    15
    Đã được cảm ơn:
    2
    Ðề: Hướng dẫn Rip nhạc sử dụng EAC (Exact Audio Copy)

    Thanks bác!! Mình cũng đã up vài album nhưng mình rip bằng easy cd-da extractor nay học cách rip bằng eac để up tiếp.
     
  11. nualinhhonsau

    nualinhhonsau New Member

    Tham gia ngày:
    13/8/09
    Bài viết:
    15
    Đã được cảm ơn:
    2
    Ðề: Hướng dẫn Rip nhạc sử dụng EAC (Exact Audio Copy)

    Mình có rip lại một CD khác của Cẩm Ly xin bác cho ý kiến.
    Hixhix!!! Bác có PM cho em mà em không thể trả lời cho bác được vì chưa đủ 15 post. còn email của em đây [email protected].
     
  12. arryo

    arryo Active Member

    Tham gia ngày:
    7/7/08
    Bài viết:
    890
    Đã được cảm ơn:
    72
    Ðề: Hướng dẫn Rip nhạc sử dụng EAC (Exact Audio Copy)

    Good rồi đó bác. Hình như bác rip bằng laptop đúng không? Vì em thấy khá nhiều bác dùng laptop có vấn đề về cái accurate rip, chủ yếu là do optical drive. Bác xem thử cái này của bác xem phần accurate rip có hiện vậy không, chú ý dòng cuối cùng. Bác nhấn F10, vào tab offset/speed nhé

    [​IMG]
     
  13. nualinhhonsau

    nualinhhonsau New Member

    Tham gia ngày:
    13/8/09
    Bài viết:
    15
    Đã được cảm ơn:
    2
    Ðề: Hướng dẫn Rip nhạc sử dụng EAC (Exact Audio Copy)

    Mình rip bằng pc nhưng vẫn thấy nó ẩn dòng cuối bác ơi. Có cách nào làm được không? Thanks bác
     
  14. arryo

    arryo Active Member

    Tham gia ngày:
    7/7/08
    Bài viết:
    890
    Đã được cảm ơn:
    72
    Ðề: Hướng dẫn Rip nhạc sử dụng EAC (Exact Audio Copy)

    Vậy là do cái optical drive của bác nó không có nằm trong database của accuraterip rồi. Nếu bác có một cái máy khác, bác thử cho một CD bất kỳ vào rồi cài EAC lên xem nó có connect với cái accurate rip không?

     
  15. anh_viet_kieu32

    anh_viet_kieu32 New Member

    Tham gia ngày:
    21/12/09
    Bài viết:
    9
    Đã được cảm ơn:
    2
    Ðề: Hướng dẫn Rip nhạc sử dụng EAC (Exact Audio Copy)

    Exact Audio Copy V0.99 prebeta 5 from 4. May 2009

    EAC extraction logfile from 4. January 2010, 9:13

    Kenny G / The Essential Kenny G 1

    Used drive : PLDS DVD+-RW DS-8A3S Adapter: 1 ID: 0

    Read mode : Secure
    Utilize accurate stream : Yes
    Defeat audio cache : Yes
    Make use of C2 pointers : No

    Read offset correction : 6
    Overread into Lead-In and Lead-Out : No
    Fill up missing offset samples with silence : Yes
    Delete leading and trailing silent blocks : No
    Null samples used in CRC calculations : Yes
    Used interface : Native Win32 interface for Win NT & 2000
    Gap handling : Appended to previous track

    Used output format : User Defined Encoder
    Selected bitrate : 768 kBit/s
    Quality : High
    Add ID3 tag : No
    Command line compressor : C:\Program Files\FLAC\flac.exe
    Additional command line options : -8 -V -T "ARTIST=%a" -T "TITLE=%t" -T "ALBUM=%g" -T "DATE=%y" -T "TRACKNUMBER=%n" -T "TOTALTRACKS=%x" -T "GENRE=%m" -T "ALBUM ARTIST=%v" -T "ALBUMARTIST=%v" -T "COMMENT=EAC V0.99 prebeta 5, Secure Mode, Test & Copy, Accurat


    TOC of the extracted CD

    Track | Start | Length | Start sector | End sector
    ---------------------------------------------------------
    1 | 0:00.00 | 5:03.21 | 0 | 22745
    2 | 5:03.21 | 4:20.26 | 22746 | 42271
    3 | 9:23.47 | 4:53.69 | 42272 | 64315
    4 | 14:17.41 | 4:03.62 | 64316 | 82602
    5 | 18:21.28 | 5:29.57 | 82603 | 107334
    6 | 23:51.10 | 4:44.74 | 107335 | 128708
    7 | 28:36.09 | 4:08.27 | 128709 | 147335
    8 | 32:44.36 | 4:38.47 | 147336 | 168232
    9 | 37:23.08 | 4:01.02 | 168233 | 186309
    10 | 41:24.10 | 4:20.67 | 186310 | 205876
    11 | 45:45.02 | 4:59.74 | 205877 | 228375
    12 | 50:45.01 | 8:23.48 | 228376 | 266148
    13 | 59:08.49 | 4:24.38 | 266149 | 285986
    14 | 63:33.12 | 3:20.17 | 285987 | 301003
    15 | 66:53.29 | 3:58.03 | 301004 | 318856
    16 | 70:51.32 | 6:35.14 | 318857 | 348495


    Track 1

    Filename D:\Music_relax\Lossless\Kenny G - The Essential Kenny G 1 (2010) [FLAC]\01 - songbird.wav

    Pre-gap length 0:00:02.00

    Peak level 100.0 %
    Track quality 100.0 %
    Test CRC 72B69F2A
    Copy CRC 72B69F2A
    Accurately ripped (confidence 8) [F665B86A]
    Copy OK

    Track 2

    Filename D:\Music_relax\Lossless\Kenny G - The Essential Kenny G 1 (2010) [FLAC]\02 - sade.wav

    Peak level 94.4 %
    Track quality 99.9 %
    Test CRC FE2F26A3
    Copy CRC FE2F26A3
    Cannot be verified as accurate (confidence 11) [7F32965C], AccurateRip returned [D1FC026C]
    Copy OK

    Track 3

    Filename D:\Music_relax\Lossless\Kenny G - The Essential Kenny G 1 (2010) [FLAC]\03 - slip of the tongue.wav

    Pre-gap length 0:00:02.00

    Peak level 89.1 %
    Track quality 100.0 %
    Test CRC 2870A19B
    Copy CRC 2870A19B
    Cannot be verified as accurate (confidence 11) [799D34B2], AccurateRip returned [2C57C9FF]
    Copy OK

    Track 4

    Filename D:\Music_relax\Lossless\Kenny G - The Essential Kenny G 1 (2010) [FLAC]\04 - don't make me wait for love.wav

    Pre-gap length 0:00:02.00

    Peak level 99.9 %
    Track quality 100.0 %
    Test CRC 380C83BA
    Copy CRC 380C83BA
    Cannot be verified as accurate (confidence 11) [54E427A2], AccurateRip returned [3BB03EBE]
    Copy OK

    Track 5

    Filename D:\Music_relax\Lossless\Kenny G - The Essential Kenny G 1 (2010) [FLAC]\05 - silhouette.wav

    Pre-gap length 0:00:02.00

    Peak level 89.1 %
    Track quality 100.0 %
    Test CRC 63F6B13F
    Copy CRC 63F6B13F
    Cannot be verified as accurate (confidence 11) [FCC72D01], AccurateRip returned [D9AC2998]
    Copy OK

    Track 6

    Filename D:\Music_relax\Lossless\Kenny G - The Essential Kenny G 1 (2010) [FLAC]\06 - against doctor's orders.wav

    Pre-gap length 0:00:03.00

    Peak level 95.5 %
    Track quality 100.0 %
    Test CRC D19F7179
    Copy CRC D19F7179
    Cannot be verified as accurate (confidence 11) [5D00B27A], AccurateRip returned [BA119221]
    Copy OK

    Track 7

    Filename D:\Music_relax\Lossless\Kenny G - The Essential Kenny G 1 (2010) [FLAC]\07 - what does it take.wav

    Pre-gap length 0:00:02.00

    Peak level 79.4 %
    Track quality 99.9 %
    Test CRC 541E549C
    Copy CRC 541E549C
    Cannot be verified as accurate (confidence 11) [9C475487], AccurateRip returned [0F1F8DD8]
    Copy OK

    Track 8

    Filename D:\Music_relax\Lossless\Kenny G - The Essential Kenny G 1 (2010) [FLAC]\08 - brazil.wav

    Pre-gap length 0:00:02.00

    Peak level 98.8 %
    Track quality 99.9 %
    Test CRC 1C8386D9
    Copy CRC 1C8386D9
    Cannot be verified as accurate (confidence 11) [126214A2], AccurateRip returned [9DD32F44]
    Copy OK

    Track 9

    Filename D:\Music_relax\Lossless\Kenny G - The Essential Kenny G 1 (2010) [FLAC]\09 - theme from dying young.wav

    Pre-gap length 0:00:02.00

    Peak level 99.9 %
    Track quality 100.0 %
    Test CRC E60DC79F
    Copy CRC E60DC79F
    Cannot be verified as accurate (confidence 11) [C33649F1], AccurateRip returned [BE967F33]
    Copy OK

    Track 10

    Filename D:\Music_relax\Lossless\Kenny G - The Essential Kenny G 1 (2010) [FLAC]\10 - we've saved the best for last.wav

    Pre-gap length 0:00:02.00

    Peak level 100.0 %
    Track quality 100.0 %
    Test CRC A2A95DFB
    Copy CRC A2A95DFB
    Cannot be verified as accurate (confidence 11) [7CBB9CBD], AccurateRip returned [35A4F7B0]
    Copy OK

    Track 11

    Filename D:\Music_relax\Lossless\Kenny G - The Essential Kenny G 1 (2010) [FLAC]\11 - forever in love.wav

    Pre-gap length 0:00:02.00

    Peak level 100.0 %
    Track quality 100.0 %
    Test CRC A30AE4C5
    Copy CRC A30AE4C5
    Cannot be verified as accurate (confidence 11) [49A3AC98], AccurateRip returned [D93E7937]
    Copy OK

    Track 12

    Filename D:\Music_relax\Lossless\Kenny G - The Essential Kenny G 1 (2010) [FLAC]\12 - midnight motion.wav

    Pre-gap length 0:00:02.00

    Peak level 100.0 %
    Track quality 100.0 %
    Test CRC 98CCFE7A
    Copy CRC 98CCFE7A
    Cannot be verified as accurate (confidence 11) [A5D2C510], AccurateRip returned [1B4A4CFB]
    Copy OK

    Track 13

    Filename D:\Music_relax\Lossless\Kenny G - The Essential Kenny G 1 (2010) [FLAC]\13 - by the tiem this night is over.wav

    Pre-gap length 0:00:02.00

    Peak level 89.1 %
    Track quality 100.0 %
    Test CRC 373AEEDD
    Copy CRC 373AEEDD
    Cannot be verified as accurate (confidence 11) [B6E6FA66], AccurateRip returned [600E0F70]
    Copy OK

    Track 14

    Filename D:\Music_relax\Lossless\Kenny G - The Essential Kenny G 1 (2010) [FLAC]\14 - loving you.wav

    Pre-gap length 0:00:03.00

    Peak level 100.0 %
    Track quality 99.9 %
    Test CRC 0A1751E9
    Copy CRC 0A1751E9
    Cannot be verified as accurate (confidence 11) [B48EC747], AccurateRip returned [9A5152F1]
    Copy OK

    Track 15

    Filename D:\Music_relax\Lossless\Kenny G - The Essential Kenny G 1 (2010) [FLAC]\15 - have yourself a merry little christmas.wav

    Pre-gap length 0:00:03.00

    Peak level 97.7 %
    Track quality 100.0 %
    Test CRC 6E56A6A4
    Copy CRC 6E56A6A4
    Cannot be verified as accurate (confidence 11) [370CBAEF], AccurateRip returned [C5760F34]
    Copy OK

    Track 16

    Filename D:\Music_relax\Lossless\Kenny G - The Essential Kenny G 1 (2010) [FLAC]\16 - sentimental.wav

    Pre-gap length 0:00:03.00

    Peak level 89.1 %
    Track quality 99.9 %
    Test CRC 3F9497D9
    Copy CRC 3F9497D9
    Cannot be verified as accurate (confidence 11) [2290EDD5], AccurateRip returned [DA0D6E27]
    Copy OK


    1 track(s) accurately ripped
    15 track(s) could not be verified as accurate

    Some tracks could not be verified as accurate

    No errors occurred

    Sao cua em lai co cau: "Cannot be verified as accurate (confidence 11) [2290EDD5], AccurateRip returned [DA0D6E27]"

    Vay la bi gi vay, mong nhan duoc su chi giao. Thanks


    End of status report
     
    motcoidive_2014 cảm ơn bài này.
  16. arryo

    arryo Active Member

    Tham gia ngày:
    7/7/08
    Bài viết:
    890
    Đã được cảm ơn:
    72
    Ðề: Hướng dẫn Rip nhạc sử dụng EAC (Exact Audio Copy)

    Không sao cả, cái pressing CD của bạn có lẽ không nằm trong cái database của accurate rip.

    À, nhưng lạ một điều là có 1 bài lại là accurate rip. Bạn thử rip lại ở một máy khác xem sao
     
  17. vietmagic

    vietmagic Well-Known Member

    Tham gia ngày:
    1/9/09
    Bài viết:
    765
    Đã được cảm ơn:
    624
    Nghề nghiệp:
    CNTT
    Nơi ở:
    VN
    Ðề: Hướng dẫn Rip nhạc sử dụng EAC (Exact Audio Copy)

    Chủ thớt có files plugin .Ape cho Adobe Audition hok, cho mình đi, đang cần lắm!
     
  18. arryo

    arryo Active Member

    Tham gia ngày:
    7/7/08
    Bài viết:
    890
    Đã được cảm ơn:
    72
    Ðề: Hướng dẫn Rip nhạc sử dụng EAC (Exact Audio Copy)

    Sorry mình không có.

     
  19. doanxem

    doanxem Well-Known Member

    Tham gia ngày:
    8/9/08
    Bài viết:
    1,127
    Đã được cảm ơn:
    155
    Nghề nghiệp:
    nothing
    Nơi ở:
    Bac Ninh, Vietnam
    Ðề: Hướng dẫn Rip nhạc sử dụng EAC (Exact Audio Copy)

    Mã:
    Track not present in AccurateRip database
    của e cũng bị báo là k tìm thấy trong dữ liệu của accuraterip.có cái cd thì có cái thì không.không biết là tại sao hả chị?
     
  20. arryo

    arryo Active Member

    Tham gia ngày:
    7/7/08
    Bài viết:
    890
    Đã được cảm ơn:
    72
    Ðề: Hướng dẫn Rip nhạc sử dụng EAC (Exact Audio Copy)

    Không sao đâu, đơn giản là vì hoặc album đó mới quá chưa có trong database, hoặc là cái pressing đó khác với những pressing khác, hoặc là chưa được ai cập nhật vào database
     

Chia sẻ trang này