[Hoạt Hình | 1link] Tom and Jerry The Lost Dragon 2014 720p BluRay DTS x264-RARBG - Tom Và Jerry: Ch

Thảo luận trong 'Phim hoạt hình' bắt đầu bởi quangnuyen, 7/10/14.

  1. quangnuyen

    quangnuyen Well-Known Member

    Tham gia ngày:
    21/6/12
    Bài viết:
    2,948
    Đã được cảm ơn:
    1,980
    Tom and Jerry The Lost Dragon 2014 720p BluRay DTS x264-RARBG - Tom Và Jerry: Chú Rồng Mất Tích
    [​IMG]
    Mã:
    Video
    ID                                       : 1
    
    
    	

    Format : AVC

    Format/Info : Advanced Video Codec Format profile : [email protected] Format settings, CABAC : Yes Format settings, ReFrames : 5 frames Codec ID : V_MPEG4/ISO/AVC Duration : 56mn 41s Bit rate : 2 327 Kbps Width : 1 280 pixels Height : 720 pixels Display aspect ratio : 16:9 Frame rate mode : Constant Frame rate : 23.976 fps Color space : YUV Chroma subsampling : 4:2:0 Bit depth : 8 bits Scan type : Progressive Bits/(Pixel*Frame) : 0.105 Stream size : 944 MiB (59%) Title : Tom.and.Jerry.The.Lost.Dragon.2014.720p.BluRay.x26 4.DTS-RARBG Writing library : x264 core 142 r2479 dd79a61 Encoding settings : cabac=1 / ref=5 / deblock=1:0:0 / analyse=0x3:0x113 / me=umh / subme=7 / psy=1 / psy_rd=1.00:0.00 / mixed_ref=1 / me_range=16 / chroma_me=1 / trellis=1 / 8x8dct=1 / cqm=0 / deadzone=21,11 / fast_pskip=0 / chroma_qp_offset=-2 / threads=12 / lookahead_threads=2 / sliced_threads=0 / nr=0 / decimate=1 / interlaced=0 / bluray_compat=0 / constrained_intra=0 / bframes=3 / b_pyramid=2 / b_adapt=1 / b_bias=0 / direct=3 / weightb=1 / open_gop=0 / weightp=2 / keyint=240 / keyint_min=23 / scenecut=40 / intra_refresh=0 / rc_lookahead=40 / rc=crf / mbtree=1 / crf=20.0 / qcomp=0.60 / qpmin=0 / qpmax=69 / qpstep=4 / ip_ratio=1.40 / aq=1:1.00 Language : English Default : Yes Forced : No Audio ID : 2 Format : DTS Format/Info : Digital Theater Systems Mode : 16 Format settings, Endianness : Big Codec ID : A_DTS Duration : 56mn 41s Bit rate mode : Constant Bit rate : 1 509 Kbps Channel(s) : 6 channels Channel positions : Front: L C R, Side: L R, LFE Sampling rate : 48.0 KHz Bit depth : 24 bits Compression mode : Lossy Stream size : 612 MiB (39%) Title : Tom.and.Jerry.The.Lost.Dragon.2014.720p.BluRay.x26 4.DTS-RARBG
    [​IMG]
    [video=youtube;ZH-LCCmBVhE]http://www.youtube.com/watch?v=ZH-LCCmBVhE[/video]
    1 Link 1.55 Gb
    Nhấn nút Cảm ơn (dưới chân bài) để thấy link!

    Sub
     
    fsvnhd cảm ơn bài này.
  2. kiemkhach9xx

    kiemkhach9xx Member

    Tham gia ngày:
    4/2/10
    Bài viết:
    77
    Đã được cảm ơn:
    113
    Ðề: [Hoạt Hình | 1link] Tom and Jerry The Lost Dragon 2014 720p BluRay DTS x264-RARBG - Tom Và Jerry: Chú Rồng Mất Tích

    thanks!!!!! chủ thớt
     
  3. demon311

    demon311 New Member

    Tham gia ngày:
    29/5/14
    Bài viết:
    8
    Đã được cảm ơn:
    0
    Ðề: [Hoạt Hình | 1link] Tom and Jerry The Lost Dragon 2014 720p BluRay DTS x264-RARBG - Tom Và Jerry: Chú Rồng Mất Tích

    Lâu rồi mới coi lại Tom & Jerry đây
    Hóng mãi
    ============================
     
  4. kiemkhach9xx

    kiemkhach9xx Member

    Tham gia ngày:
    4/2/10
    Bài viết:
    77
    Đã được cảm ơn:
    113
    Ðề: [Hoạt Hình | 1link] Tom and Jerry The Lost Dragon 2014 720p BluRay DTS x264-RARBG - Tom Và Jerry: Chú Rồng Mất Tích

    thanks bác hay!!!
     
  5. vytieubao123

    vytieubao123 Banned

    Tham gia ngày:
    30/9/14
    Bài viết:
    32
    Đã được cảm ơn:
    1
    Ðề: [Hoạt Hình | 1link] Tom and Jerry The Lost Dragon 2014 720p BluRay DTS x264-RARBG - Tom Và Jerry: Chú Rồng Mất Tích

    tom and jerry một thời đã làm mưa làm gió mà :D hay lắm
     
  6. vuongthaison

    vuongthaison Member

    Tham gia ngày:
    11/6/14
    Bài viết:
    104
    Đã được cảm ơn:
    7
    Giới tính:
    Nam
    Nghề nghiệp:
    kinh Doanh
    Nơi ở:
    Ha Noi
    Ðề: [Hoạt Hình | 1link] Tom and Jerry The Lost Dragon 2014 720p BluRay DTS x264-RARBG - Tom Và Jerry: Chú Rồng Mất Tích

    kéo về mấy nhỏ nhà mình thích lắm, thanks bác.
     

Chia sẻ trang này