[Hành Động] Venom Let There Be Carnage 2021 1080p BluRay REMUX AVC DTS-HD MA - Venom: Đối Mặt Tử Thù

Thảo luận trong 'Bluray Remux' bắt đầu bởi xemaydinh, 7/12/21.

  1. xemaydinh

    xemaydinh Tem

    Tham gia ngày:
    3/7/10
    Bài viết:
    36,012
    Đã được cảm ơn:
    190,616
    mới cập nhật thuyết minh,remux

    Venom Let There Be Carnage 2021 1080p BluRay REMUX AVC DTS-HD MA 5 1-PiRaTeS

    Venom: Đối Mặt Tử Thù

    [​IMG]



    18 tháng sau các sự kiện trong Venom (2018), phóng viên Eddie Brock cố gắng làm quen với việc sống như 1 vật chủ của sinh vật ngoài hành tinh Venom, kẻ ban cho anh siêu năng lực nhưng cũng khiến anh phải cảnh giác. Brock cố gắng xây dựng lại sự nghiệp của mình bằng cách phỏng vấn tên sát nhân Cletus Kasady, kẻ trở thành vật chủ của sinh vật Carnage và bỏ trốn khỏi nhà tù sau khi may mắn thoát khỏi hành quyết.



    General
    Unique ID : 260668544135477491913987097890128000854 (0xC41AEF7B079A3398B706E48A6921F756)
    Complete name : Venom.Let.There.Be.Carnage.2021.1080p.BluRay.REMUX.AVC.DTS-HD.MA.5.1-PiRaTeS.mkv
    Format : Matroska
    Format version : Version 2
    File size : 18.7 GiB
    Duration : 1 h 37 min
    Overall bit rate mode : Variable
    Overall bit rate : 27.5 Mb/s
    Encoded date : UTC 2021-12-07 02:40:29
    Writing application : MakeMKV v1.16.5 linux(x64-release)
    Writing library : libmakemkv v1.16.5 (1.3.10/1.5.2) x86_64-linux-gnu

    Video
    ID : 1
    ID in the original source medium : 4113 (0x1011)
    Format : AVC
    Format/Info : Advanced Video Codec
    Format profile : [email protected]
    Format settings : CABAC / 2 Ref Frames
    Format settings, CABAC : Yes
    Format settings, Reference frames : 2 frames
    Format settings, GOP : M=1, N=10
    Codec ID : V_MPEG4/ISO/AVC
    Duration : 1 h 37 min
    Bit rate mode : Variable
    Bit rate : 24.8 Mb/s
    Width : 1 920 pixels
    Height : 1 080 pixels
    Display aspect ratio : 16:9
    Frame rate mode : Constant
    Frame rate : 23.976 (24000/1001) FPS
    Color space : YUV
    Chroma subsampling : 4:2:0
    Bit depth : 8 bits
    Scan type : Progressive
    Bits/(Pixel*Frame) : 0.500
    Stream size : 16.9 GiB (90%)
    Language : English
    Default : No
    Forced : No
    Original source medium : Blu-ray

    Audio
    ID : 2
    ID in the original source medium : 4352 (0x1100)
    Format : DTS XLL
    Format/Info : Digital Theater Systems
    Commercial name : DTS-HD Master Audio
    Codec ID : A_DTS
    Duration : 1 h 37 min
    Bit rate mode : Variable
    Bit rate : 2 330 kb/s
    Channel(s) : 6 channels
    Channel layout : C L R Ls Rs LFE
    Sampling rate : 48.0 kHz
    Frame rate : 93.750 FPS (512 SPF)
    Bit depth : 16 bits
    Compression mode : Lossless
    Stream size : 1.58 GiB (8%)
    Language : English
    Default : Yes
    Forced : No
    Original source medium : Blu-ray

    Text #1
    ID : 3
    ID in the original source medium : 4608 (0x1200)
    Format : PGS
    Codec ID : S_HDMV/PGS
    Codec ID/Info : Picture based subtitle format used on BDs/HD-DVDs
    Duration : 1 h 36 min
    Bit rate : 43.5 kb/s
    Count of elements : 3258
    Stream size : 30.1 MiB (0%)
    Language : English
    Default : No
    Forced : No
    Original source medium : Blu-ray

    Text #2
    ID : 5
    ID in the original source medium : 4609 (0x1201)
    Format : PGS
    Codec ID : S_HDMV/PGS
    Codec ID/Info : Picture based subtitle format used on BDs/HD-DVDs
    Duration : 1 h 27 min
    Bit rate : 31.9 kb/s
    Count of elements : 2252
    Stream size : 19.9 MiB (0%)
    Language : English
    Default : No
    Forced : No
    Original source medium : Blu-ray

    Text #3
    ID : 7
    ID in the original source medium : 4610 (0x1202)
    Format : PGS
    Codec ID : S_HDMV/PGS
    Codec ID/Info : Picture based subtitle format used on BDs/HD-DVDs
    Duration : 1 h 36 min
    Bit rate : 23.0 kb/s
    Count of elements : 2254
    Stream size : 15.8 MiB (0%)
    Language : Chinese
    Default : No
    Forced : No
    Original source medium : Blu-ray

    Text #4
    ID : 8
    ID in the original source medium : 4611 (0x1203)
    Format : PGS
    Codec ID : S_HDMV/PGS
    Codec ID/Info : Picture based subtitle format used on BDs/HD-DVDs
    Duration : 1 h 36 min
    Bit rate : 23.4 kb/s
    Count of elements : 2238
    Stream size : 16.1 MiB (0%)
    Language : Chinese
    Default : No
    Forced : No
    Original source medium : Blu-ray

    Text #5
    ID : 9
    ID in the original source medium : 4612 (0x1204)
    Format : PGS
    Codec ID : S_HDMV/PGS
    Codec ID/Info : Picture based subtitle format used on BDs/HD-DVDs
    Duration : 1 h 36 min
    Bit rate : 22.5 kb/s
    Count of elements : 2228
    Stream size : 15.5 MiB (0%)
    Language : Chinese
    Default : No
    Forced : No
    Original source medium : Blu-ray

    Text #6
    ID : 10
    ID in the original source medium : 4615 (0x1207)
    Format : PGS
    Codec ID : S_HDMV/PGS
    Codec ID/Info : Picture based subtitle format used on BDs/HD-DVDs
    Duration : 1 h 36 min
    Bit rate : 26.6 kb/s
    Count of elements : 2112
    Stream size : 18.3 MiB (0%)
    Language : French
    Default : No
    Forced : No
    Original source medium : Blu-ray

    Text #7
    ID : 11
    ID in the original source medium : 4616 (0x1208)
    Format : PGS
    Codec ID : S_HDMV/PGS
    Codec ID/Info : Picture based subtitle format used on BDs/HD-DVDs
    Duration : 1 h 36 min
    Bit rate : 29.5 kb/s
    Count of elements : 2200
    Stream size : 20.2 MiB (0%)
    Language : Indonesian
    Default : No
    Forced : No
    Original source medium : Blu-ray

    Text #8
    ID : 12
    ID in the original source medium : 4617 (0x1209)
    Format : PGS
    Codec ID : S_HDMV/PGS
    Codec ID/Info : Picture based subtitle format used on BDs/HD-DVDs
    Duration : 1 h 35 min
    Bit rate : 21.7 kb/s
    Count of elements : 2251
    Stream size : 14.9 MiB (0%)
    Language : Korean
    Default : No
    Forced : No
    Original source medium : Blu-ray

    Text #9
    ID : 13
    ID in the original source medium : 4618 (0x120A)
    Format : PGS
    Codec ID : S_HDMV/PGS
    Codec ID/Info : Picture based subtitle format used on BDs/HD-DVDs
    Duration : 1 h 36 min
    Bit rate : 30.5 kb/s
    Count of elements : 2208
    Stream size : 21.0 MiB (0%)
    Language : Malay
    Default : No
    Forced : No
    Original source medium : Blu-ray

    Text #10
    ID : 14
    ID in the original source medium : 4619 (0x120B)
    Format : PGS
    Codec ID : S_HDMV/PGS
    Codec ID/Info : Picture based subtitle format used on BDs/HD-DVDs
    Duration : 1 h 36 min
    Bit rate : 27.5 kb/s
    Count of elements : 2154
    Stream size : 18.9 MiB (0%)
    Language : Portuguese
    Default : No
    Forced : No
    Original source medium : Blu-ray

    Text #11
    ID : 15
    ID in the original source medium : 4620 (0x120C)
    Format : PGS
    Codec ID : S_HDMV/PGS
    Codec ID/Info : Picture based subtitle format used on BDs/HD-DVDs
    Duration : 1 h 36 min
    Bit rate : 26.4 kb/s
    Count of elements : 2174
    Stream size : 18.1 MiB (0%)
    Language : Spanish
    Default : No
    Forced : No
    Original source medium : Blu-ray

    Text #12
    ID : 16
    ID in the original source medium : 4621 (0x120D)
    Format : PGS
    Codec ID : S_HDMV/PGS
    Codec ID/Info : Picture based subtitle format used on BDs/HD-DVDs
    Duration : 1 h 36 min
    Bit rate : 27.3 kb/s
    Count of elements : 2250
    Stream size : 18.7 MiB (0%)
    Language : Thai
    Default : No
    Forced : No
    Original source medium : Blu-ray

    Menu
    00:00:00.000 : en:Chapter 01
    00:05:25.033 : en:Chapter 02
    00:09:33.072 : en:Chapter 03
    00:12:20.406 : en:Chapter 04
    00:18:23.435 : en:Chapter 05
    00:23:01.380 : en:Chapter 06
    00:30:17.857 : en:Chapter 07
    00:35:03.726 : en:Chapter 08
    00:39:26.781 : en:Chapter 09
    00:45:34.815 : en:Chapter 10
    00:50:40.328 : en:Chapter 11
    00:55:29.492 : en:Chapter 12
    01:01:01.032 : en:Chapter 13
    01:06:57.555 : en:Chapter 14
    01:14:36.597 : en:Chapter 15
    01:21:57.662 : en:Chapter 16
    01:28:50.992 : en:Chapter 17



    [​IMG] [​IMG]
    [​IMG] [​IMG]
    [​IMG] [​IMG]




    Fshare ~18.7 GB




    mhd https://www.hdvietnam.com/threads/h...y-dd5-1x264-xmd-venom-doi-mat-tu-thu.1739771/

    720p https://www.hdvietnam.com/threads/h...-hd-ma-5-1-x264-venom-doi-mat-tu-thu.1739783/

    1080p https://www.hdvietnam.com/threads/h...-hd-ma-5-1-x264-venom-doi-mat-tu-thu.1739504/

    4K https://www.hdvietnam.com/threads/4...-x265-10bit-hdr-dts-hd-ma-truehd-7-1.1743281/

    4K thuyết minh https://hdvietnam.com/threads/hanh-...ray-dts-hd-ma-5-1-x264.1739825/#post-10726532

    Thuyết minh https://www.hdvietnam.com/threads/h...p-1080p-4k-bluray-dts-hd-ma-5-1-x264.1739825/

    Remux https://www.hdvietnam.com/threads/h...x-avc-dts-hd-ma-venom-doi-mat-tu-thu.1740963/

    Remux _thuyết minh https://hdvietnam.com/threads/hanh-...ray-dts-hd-ma-5-1-x264.1739825/#post-10721564

    Remux 4K https://www.hdvietnam.com/threads/r...-2160p-remux-hevc-truhd-7-1-atmos-dv.1742621/

    Remux 4K_thuyết minh + sub việt mux sẵn https://hdvietnam.com/threads/hanh-...ray-dts-hd-ma-5-1-x264.1739825/#post-10737769

    ISO https://www.hdvietnam.com/threads/i...-avc-dts-hd-ma5-venom-doi-mat-tu-thu.1742222/

    ISO 4K https://www.hdvietnam.com/threads/i...lu-ray-hevc-atmos-tru-doi-mat-tu-thu.1743129/
     
    Chỉnh sửa cuối: 12/3/22
    2cents cảm ơn bài này.
  2. xemaydinh

    xemaydinh Tem

    Tham gia ngày:
    3/7/10
    Bài viết:
    36,012
    Đã được cảm ơn:
    190,616
  3. xemaydinh

    xemaydinh Tem

    Tham gia ngày:
    3/7/10
    Bài viết:
    36,012
    Đã được cảm ơn:
    190,616
  4. xemaydinh

    xemaydinh Tem

    Tham gia ngày:
    3/7/10
    Bài viết:
    36,012
    Đã được cảm ơn:
    190,616

Chia sẻ trang này