[Hành động] Unbreakable 2000 REMASTERED 1080p BluRay REMUX AVC DTS-HD MA.5.1-FGT - Không thể tổn

Thảo luận trong 'Bluray Remux' bắt đầu bởi canodinh, 22/9/21.

  1. canodinh

    canodinh Well-Known Member

    Tham gia ngày:
    10/9/11
    Bài viết:
    494
    Đã được cảm ơn:
    3,002
    Unbreakable 2000 REMASTERED 1080p BluRay REMUX AVC DTS-HD MA.5.1-FGT

    Không thể tổn thương

    [​IMG]



    Unbreakable được phát hành vào ngày 22 tháng 11 năm 2000 và nhận được nhiều đánh giá tích cực. Các nhà phê bình ca ngợi tính thẩm mỹ, các màn trình diễn, trọng lượng cảm xúc của câu chuyện. Nhiều người coi Unbreakable là một trong những phim hay nhất của Shyamalan, và là một trong những bộ phim siêu anh hùng hay nhất. Năm 2011, Time xếp hạng phim thứ tư trong mười phim siêu anh hùng hàng đầu mọi thời đại. Quentin Tarantino cũng đưa Unbreakable vào danh sách 20 phim hay nhất được phát hành từ năm 1992.


    Video
    ID : 1
    ID in the original source medium : 4113 (0x1011)
    Format : AVC
    Format/Info : Advanced Video Codec
    Format profile : [email protected]
    Format settings : CABAC / 4 Ref Frames
    Format settings, CABAC : Yes
    Format settings, Reference frames : 4 frames
    Codec ID : V_MPEG4/ISO/AVC
    Duration : 1 h 46 min
    Bit rate mode : Variable
    Bit rate : 34.5 Mb/s
    Maximum bit rate : 40.0 Mb/s
    Width : 1 920 pixels
    Height : 1 080 pixels
    Display aspect ratio : 16:9
    Frame rate mode : Constant
    Frame rate : 23.976 (24000/1001) FPS
    Color space : YUV
    Chroma subsampling : 4:2:0
    Bit depth : 8 bits
    Scan type : Progressive
    Bits/(Pixel*Frame) : 0.695
    Stream size : 25.7 GiB (86%)
    Language : English
    Default : No
    Forced : No
    Original source medium : Blu-ray

    Audio #1
    ID : 2
    ID in the original source medium : 4352 (0x1100)
    Format : DTS ES XLL
    Format/Info : Digital Theater Systems
    Commercial name : DTS-HD Master Audio
    Codec ID : A_DTS
    Duration : 1 h 46 min
    Bit rate mode : Variable
    Bit rate : 3 873 kb/s
    Channel(s) : 6 channels
    Channel(s)_Original : 7 channels
    ChannelLayout_Original : C L R Ls Rs LFE Cs
    Sampling rate : 48.0 kHz
    Frame rate : 93.750 FPS (512 SPF)
    Bit depth : 24 bits
    Compression mode : Lossless
    Stream size : 2.89 GiB (10%)
    Title : DTS-HD MA 5.1
    Language : English
    Default : Yes
    Forced : No
    Original source medium : Blu-ray

    Audio #2
    ID : 3
    ID in the original source medium : 4353 (0x1101)
    Format : AC-3
    Format/Info : Audio Coding 3
    Commercial name : Dolby Digital
    Codec ID : A_AC3
    Duration : 1 h 46 min
    Bit rate mode : Constant
    Bit rate : 320 kb/s
    Channel(s) : 2 channels
    Channel layout : L R
    Sampling rate : 48.0 kHz
    Frame rate : 31.250 FPS (1536 SPF)
    Compression mode : Lossy
    Stream size : 244 MiB (1%)
    Title : DD 2.0
    Language : English
    Service kind : Complete Main
    Default : No
    Forced : No
    Original source medium : Blu-ray

    Audio #3
    ID : 4
    ID in the original source medium : 4354 (0x1102)
    Format : AC-3
    Format/Info : Audio Coding 3
    Commercial name : Dolby Digital
    Format settings : Dolby Surround EX
    Codec ID : A_AC3
    Duration : 1 h 46 min
    Bit rate mode : Constant
    Bit rate : 640 kb/s
    Channel(s) : 6 channels
    Channel layout : L R C LFE Ls Rs
    Sampling rate : 48.0 kHz
    Frame rate : 31.250 FPS (1536 SPF)
    Compression mode : Lossy
    Stream size : 488 MiB (2%)
    Title : DD 5.1
    Language : French
    Service kind : Complete Main
    Default : No
    Forced : No
    Original source medium : Blu-ray

    Audio #4
    ID : 5
    ID in the original source medium : 4355 (0x1103)
    Format : AC-3
    Format/Info : Audio Coding 3
    Commercial name : Dolby Digital
    Format settings : Dolby Surround EX
    Codec ID : A_AC3
    Duration : 1 h 46 min
    Bit rate mode : Constant
    Bit rate : 640 kb/s
    Channel(s) : 6 channels
    Channel layout : L R C LFE Ls Rs
    Sampling rate : 48.0 kHz
    Frame rate : 31.250 FPS (1536 SPF)
    Compression mode : Lossy
    Stream size : 488 MiB (2%)
    Title : DD 5.1
    Language : Spanish
    Service kind : Complete Main
    Default : No
    Forced : No
    Original source medium : Blu-ray

    Text #1
    ID : 6
    Format : UTF-8
    Codec ID : S_TEXT/UTF8
    Codec ID/Info : UTF-8 Plain Text
    Duration : 1 h 40 min
    Bit rate : 39 b/s
    Count of elements : 938
    Stream size : 29.3 KiB (0%)
    Title : SRT
    Language : English
    Default : Yes
    Forced : No

    Text #2
    ID : 7
    ID in the original source medium : 4608 (0x1200)
    Format : PGS
    Muxing mode : zlib
    Codec ID : S_HDMV/PGS
    Codec ID/Info : Picture based subtitle format used on BDs/HD-DVDs
    Duration : 1 h 41 min
    Bit rate : 27.8 kb/s
    Count of elements : 2069
    Stream size : 20.2 MiB (0%)
    Language : English
    Default : No
    Forced : No
    Original source medium : Blu-ray

    Text #3
    ID : 8
    ID in the original source medium : 4609 (0x1201)
    Format : PGS
    Muxing mode : zlib
    Codec ID : S_HDMV/PGS
    Codec ID/Info : Picture based subtitle format used on BDs/HD-DVDs
    Duration : 1 h 41 min
    Bit rate : 25.9 kb/s
    Count of elements : 1836
    Stream size : 18.8 MiB (0%)
    Language : French
    Default : No
    Forced : No
    Original source medium : Blu-ray

    Text #4
    ID : 9
    ID in the original source medium : 4610 (0x1202)
    Format : PGS
    Muxing mode : zlib
    Codec ID : S_HDMV/PGS
    Codec ID/Info : Picture based subtitle format used on BDs/HD-DVDs
    Duration : 1 h 41 min
    Bit rate : 24.9 kb/s
    Count of elements : 1850
    Stream size : 18.2 MiB (0%)
    Language : Spanish
    Default : No
    Forced : No
    Original source medium : Blu-ray

    Text #5
    ID : 10
    ID in the original source medium : 4611 (0x1203)
    Format : PGS
    Muxing mode : zlib
    Codec ID : S_HDMV/PGS
    Codec ID/Info : Picture based subtitle format used on BDs/HD-DVDs
    Duration : 1 h 41 min
    Bit rate : 778 b/s
    Count of elements : 42
    Stream size : 581 KiB (0%)
    Language : French
    Default : No
    Forced : No
    Original source medium : Blu-ray

    Text #6
    ID : 11
    ID in the original source medium : 4612 (0x1204)
    Format : PGS
    Muxing mode : zlib
    Codec ID : S_HDMV/PGS
    Codec ID/Info : Picture based subtitle format used on BDs/HD-DVDs
    Duration : 1 h 36 min
    Bit rate : 440 b/s
    Count of elements : 32
    Stream size : 312 KiB (0%)
    Language : Spanish
    Default : No
    Forced : No
    Original source medium : Blu-ray

    Menu
    00:00:00.000 : Chapter 01
    00:08:44.774 : Chapter 02
    00:09:51.340 : Chapter 03
    00:14:57.730 : Chapter 04
    00:16:31.615 : Chapter 05
    00:20:58.006 : Chapter 06
    00:25:05.587 : Chapter 07
    00:32:26.736 : Chapter 08
    00:34:37.825 : Chapter 09
    00:36:29.061 : Chapter 10
    00:40:56.370 : Chapter 11
    00:43:22.641 : Chapter 12
    00:49:59.705 : Chapter 13
    00:54:53.707 : Chapter 14
    00:56:58.081 : Chapter 15
    01:00:00.763 : Chapter 16
    01:02:52.059 : Chapter 17
    01:04:35.705 : Chapter 18
    01:07:37.928 : Chapter 19
    01:12:17.499 : Chapter 20
    01:13:29.113 : Chapter 21
    01:17:33.982 : Chapter 22
    01:22:20.352 : Chapter 23
    01:31:39.285 : Chapter 24
    01:33:14.255 : Chapter 25
    01:35:53.748 : Chapter 26
    01:37:50.656 : Chapter 27
    01:42:16.130 : Chapter 28









    mhd

    720p

    1080p https://www.hdvietnam.com/threads/h...y-x264-nokitkat-khong-the-ton-thuong.1713739/

    Thuyết minh

    Remux https://www.hdvietnam.com/threads/h...-avc-dts-hd-ma-5-1-fgt-khong-the-ton.1713575/

    ISO
     
    Chỉnh sửa cuối: 23/9/21

Chia sẻ trang này