[Hành Động] Turbo Kid 2015 1080p BLURAY REMUX AVC DTS-MA 5 1-HOBALLS- Kid Siêu Tốc

Thảo luận trong 'Bluray Remux' bắt đầu bởi xemaydinh, 20/1/22.

  1. xemaydinh

    xemaydinh Tem

    Tham gia ngày:
    3/7/10
    Bài viết:
    36,021
    Đã được cảm ơn:
    190,660
    Turbo Kid 2015 1080p BLURAY REMUX AVC DTS-MA 5 1-HOBALLS

    Kid Siêu Tốc

    [​IMG]



    Kid Siêu Tốc - Turbo Kid 2015: Bộ phim có bối cảnh về thế giới tương lai hậu tận thế, nơi ấy có The Kid - một chàng trai mồ côi tốt bụng vô tình gặp được một cô gái bí ẩn tên Apple, họ trở thành những người bạn tốt của nhau cho đến một ngày khi Zeus – Bạo chúa của vùng đất Wasteland bắt cóc cô. The Kid phải đối mặt với nỗi sợ của bản thân mình và bước vào cuộc hành trình chống lại cái ác để giải thoát Apple…


    REL-DATE 2021-12-21
    RIPPER HO and Balls
    SOURCE COMPLETE BLURAY

    Enjoy the coming holidays!

    General
    Unique ID : 202269132439939140158808600745882004175 (0x982B9E2EA32E56D6856CF22991A1AACF)
    Complete name : Turbo.Kid.2015.1080p.BLURAY.REMUX.AVC.DTS-MA.5.1-HOBALLS.mkv
    Format : Matroska
    Format version : Version 4 / Version 2
    File size : 20.7 GiB
    Duration : 1 h 32 min
    Overall bit rate mode : Variable
    Overall bit rate : 32.0 Mb/s
    Encoded date : UTC 2021-12-21 19:22:16
    Writing application : mkvmerge v63.0.0 ('Everything') 64-bit
    Writing library : libebml v1.4.2 + libmatroska v1.6.4

    Video
    ID : 1
    Format : AVC
    Format/Info : Advanced Video Codec
    Format profile : [email protected]
    Format settings : CABAC / 3 Ref Frames
    Format settings, CABAC : Yes
    Format settings, ReFrames : 3 frames
    Format settings, GOP : M=3, N=12
    Codec ID : V_MPEG4/ISO/AVC
    Duration : 1 h 32 min
    Bit rate mode : Variable
    Bit rate : 26.0 Mb/s
    Maximum bit rate : 32.9 Mb/s
    Width : 1 920 pixels
    Height : 1 080 pixels
    Display aspect ratio : 16:9
    Frame rate mode : Constant
    Frame rate : 23.976 (24000/1001) FPS
    Standard : NTSC
    Color space : YUV
    Chroma subsampling : 4:2:0
    Bit depth : 8 bits
    Scan type : Progressive
    Bits/(Pixel*Frame) : 0.523
    Stream size : 16.8 GiB (81%)
    Title : Turbo Kid
    Default : Yes
    Forced : No
    Color range : Limited
    Color primaries : BT.709
    Transfer characteristics : BT.709
    Matrix coefficients : BT.709

    Audio #1
    ID : 2
    Format : DTS
    Format/Info : Digital Theater Systems
    Format profile : MA / Core
    Codec ID : A_DTS
    Duration : 1 h 32 min
    Bit rate mode : Variable / Constant
    Bit rate : 3 840 kb/s / 1 509 kb/s
    Channel(s) : 6 channels
    Channel positions : Front: L C R, Side: L R, LFE
    Sampling rate : 48.0 kHz
    Frame rate : 93.750 FPS (512 SPF)
    Bit depth : 24 bits
    Compression mode : Lossless / Lossy
    Stream size : 2.53 GiB (12%)
    Language : English
    Default : Yes
    Forced : No

    Audio #2
    ID : 3
    Format : AC-3
    Format/Info : Audio Coding 3
    Codec ID : A_AC3
    Duration : 1 h 32 min
    Bit rate mode : Constant
    Bit rate : 640 kb/s
    Channel(s) : 6 channels
    Channel positions : Front: L C R, Side: L R, LFE
    Sampling rate : 48.0 kHz
    Frame rate : 31.250 FPS (1536 SPF)
    Bit depth : 16 bits
    Compression mode : Lossy
    Stream size : 424 MiB (2%)
    Language : English
    Service kind : Complete Main
    Default : Yes
    Forced : No

    Audio #3
    ID : 4
    Format : AC-3
    Format/Info : Audio Coding 3
    Codec ID : A_AC3
    Duration : 1 h 32 min
    Bit rate mode : Constant
    Bit rate : 448 kb/s
    Channel(s) : 2 channels
    Channel positions : Front: L R
    Sampling rate : 48.0 kHz
    Frame rate : 31.250 FPS (1536 SPF)
    Bit depth : 16 bits
    Compression mode : Lossy
    Stream size : 297 MiB (1%)
    Language : English
    Service kind : Complete Main
    Default : Yes
    Forced : No

    Audio #4
    ID : 5
    Format : AC-3
    Format/Info : Audio Coding 3
    Codec ID : A_AC3
    Duration : 1 h 32 min
    Bit rate mode : Constant
    Bit rate : 640 kb/s
    Channel(s) : 6 channels
    Channel positions : Front: L C R, Side: L R, LFE
    Sampling rate : 48.0 kHz
    Frame rate : 31.250 FPS (1536 SPF)
    Bit depth : 16 bits
    Compression mode : Lossy
    Stream size : 424 MiB (2%)
    Language : French
    Service kind : Complete Main
    Default : Yes
    Forced : No

    Audio #5
    ID : 6
    Format : AC-3
    Format/Info : Audio Coding 3
    Codec ID : A_AC3
    Duration : 1 h 32 min
    Bit rate mode : Constant
    Bit rate : 192 kb/s
    Channel(s) : 2 channels
    Channel positions : Front: L R
    Sampling rate : 48.0 kHz
    Frame rate : 31.250 FPS (1536 SPF)
    Bit depth : 16 bits
    Compression mode : Lossy
    Stream size : 127 MiB (1%)
    Language : English
    Service kind : Complete Main
    Default : Yes
    Forced : No

    Audio #6
    ID : 7
    Format : AC-3
    Format/Info : Audio Coding 3
    Codec ID : A_AC3
    Duration : 1 h 32 min
    Bit rate mode : Constant
    Bit rate : 192 kb/s
    Channel(s) : 2 channels
    Channel positions : Front: L R
    Sampling rate : 48.0 kHz
    Frame rate : 31.250 FPS (1536 SPF)
    Bit depth : 16 bits
    Compression mode : Lossy
    Stream size : 127 MiB (1%)
    Language : French
    Service kind : Complete Main
    Default : Yes
    Forced : No

    Text #1
    ID : 8
    Format : PGS
    Muxing mode : zlib
    Codec ID : S_HDMV/PGS
    Codec ID/Info : Picture based subtitle format used on BDs/HD-DVDs
    Duration : 1 h 26 min
    Bit rate : 11.4 kb/s
    Count of elements : 1123
    Stream size : 7.07 MiB (0%)
    Language : English
    Default : Yes
    Forced : No

    Text #2
    ID : 9
    Format : PGS
    Muxing mode : zlib
    Codec ID : S_HDMV/PGS
    Codec ID/Info : Picture based subtitle format used on BDs/HD-DVDs
    Duration : 1 h 26 min
    Bit rate : 11.3 kb/s
    Count of elements : 1355
    Stream size : 7.02 MiB (0%)
    Language : Spanish
    Default : Yes
    Forced : No

    Text #3
    ID : 10
    Format : PGS
    Muxing mode : zlib
    Codec ID : S_HDMV/PGS
    Codec ID/Info : Picture based subtitle format used on BDs/HD-DVDs
    Duration : 1 h 26 min
    Bit rate : 10.5 kb/s
    Count of elements : 1493
    Stream size : 6.52 MiB (0%)
    Language : French
    Default : Yes
    Forced : No



    [​IMG] [​IMG]
    [​IMG] [​IMG]
    [​IMG] [​IMG]



    4Share
    Nhấn nút Cảm ơn (dưới chân bài) để thấy link!



    Fshare ~ 20.71GB

    Nhấn nút Cảm ơn (dưới chân bài) để thấy link!





    Sub Việt

    https://subscene.com/subtitles/turbo-kid



    Tổng hợp phim 18+

    Tổng hợp phim full Menu (Thuyết minh+Sub Việt) bluray (nethd.org)

    Tổng hợp phim bộ Lồng tiếng, thuyết minh, sub việt

    Tổng hợp phim bluray Remux ISO 4K




    mhd

    720p

    1080p

    Thuyết minh

    Remux

    ISO
     

Chia sẻ trang này