(Hành động)(Tội phạm)Anh hùng cứu mỹ nhân Desamuduru 2007 Allu Arjun, Hansika Motwani, Pradeep Singh

Thảo luận trong 'Fshare.vn' bắt đầu bởi HLIEU, 14/11/21.

  1. HLIEU

    HLIEU Well-Known Member

    Tham gia ngày:
    12/2/09
    Bài viết:
    394
    Đã được cảm ơn:
    21,271
    Giới tính:
    Nam
    Nghề nghiệp:
    Bác sị Y Khoa chuyên Nội khoa
    Nơi ở:
    Việt Nam
    Anh hùng cứu mỹ nhân Desamuduru 2007, Allu Arjun, Hansika Motwani
    Anh hùng cứu mỹ nhân Desamuduru 2007 Allu Arjun, Hansika Motwani
    (Allu Arjun, Hotwani, Pradeep Singh Rawat( 6.32GB-10,33GB)

    [​IMG]
    [​IMG]


    [​IMG]
    Tóm tắt

    Bala Govind (Allu Arjun) là giám đốc chương trình của MAA TV. Những cuộc chiến đấu cho công lý của anh ấy thường xuyên khiến anh ấy gặp rắc rối. Trong một trong những sự cố này, anh ấy đã cứu một người (Raja Ravindra) khỏi lũ yêu tinh trong khi đánh dã man Murugesan (Subbaraju), con trai của trùm buôn lậu khét tiếng Tambi Durai (Pradeep Rawat). Lo sợ bị trả thù từ Tambi Durai, nhóm MAA TV đã cử nhóm của Bala đến Kullu Manali để quay một tập phim du lịch. Ở đó, Bala gặp Vaishali (Hansika Motwani), một sannyasin, và đó là tình yêu sét đánh dành cho anh. Vaishali, mặc dù ban đầu e ngại Bala, nhưng đã yêu anh ta. Sannyasin đứng đầu của đạo tràng, Rama Prabha (Rama Prabha), đã hợp nhất hai vợ chồng. Tuy nhiên, trước khi Bala có thể trở về Hyderabad cùng Vaishali và kết hôn với cô ấy, thì những tay sai của Tambi Durai đã bắt cóc cô và đưa cô về nhà của hắn. Người được Bala cứu tiết lộ rằng Vaishali là con gái của Narayan Patwari (Devan). Để chiếm lấy tài sản của Patwari, Tambi Durai đã giết chết cha mẹ cô, còn vợ anh là Andal (Telangana Shakuntala) đã thực hiện hôn lễ của Vaishali với Murugesan. Tuy nhiên, Vaishali trốn thoát và đến được Kulu Manali. Bala nhờ sự giúp đỡ của Thanh tra Prasad (Ahuti Prasad) để cứu Vaishali khỏi nanh vuốt của họ, và cuối cùng anh đã thành công và kết hôn với cô.


    [​IMG]

    6.2./10

    trên 1700 người

    [​IMG]
    Dàn diễn viên :
    Allu Arjun trong vai Bala Govind
    Hansika Motwani trong vai Vaishali (Sowmya Sharma lồng tiếng)
      • Pradeep Rawat trong vai Tambi Durai Ali trong vai Shankar / Himalayan​
      • Baba Chandra Mohan trong vai Chandra Mohan
      • cha của Bala Devan trong vai Narayan Patwari,
      • cha của Vaishali Telangana Shakuntala trong vai Andal,
      • vợ của Tambi Durai Subbaraju trong vai Murugesan,
      • con trai của Tambi Durai Ahuti Prasad trong vai A. Prasad
      • Rama Prabha trong vai Rama Prabha
    [​IMG]
    A) Complete name 1080p :

    Format version Version 4

    File size : 10.4 GiB

    Duration : 2 h 28 min

    Overall bit rate : 10.1 Mb/s

    Encoded date : UTC 2021-11-12 09:36:55

    Writing application : mkvmerge v62.0.0 ('Apollo') 64-bit

    Writing library : libebml v1.4.2 + libmatroska v1.6.4

    Video

    ID : 1

    Format : AVC

    Format/Info : Advanced Video Codec

    Format profile : [email protected]

    Format settings : 2 Ref Frames

    Format settings, CABAC : No

    Format settings, Reference frames : 2 frames

    Codec ID : V_MPEG4/ISO/AVC

    Duration : 2 h 28 min

    Bit rate : 10 000 kb/s

    Width : 1 920 pixels

    Height : 1 080 pixels

    Display aspect ratio : 16:9

    Frame rate mode : Constant

    Frame rate : 23.976 (23976/1000) FPS

    Color space : YUV

    Chroma subsampling : 4:2:0

    Bit depth : 8 bits

    Scan type : Progressive

    Bits/(Pixel*Frame) : 0.201

    Stream size : 10.3 GiB (99%)

    Writing library : x264 core 142

    Default : Yes

    Forced : No

    B)Audio

    ID : 2

    Format : AAC LC

    Format/Info : Advanced Audio Codec Low Complexity

    Codec ID : A_AAC-2

    Duration : 2 h 28 min

    Bit rate : 125 kb/s

    Channels: 6 channels

    Channel layout : C L R Ls Rs LFE

    Sampling rate : 48.0 kHz

    Frame rate : 46.875 FPS (1024 SPF)

    Compression mode : Lossy

    Delay relative to video : -21 ms

    Stream size : 132 MiB (1%)

    Default : Yes

    B)Solid 720p :

    Format : Matroska

    Format version : Version 4

    File size : 6.32 GiB

    Duration : 2 h 28 min

    Overall bit rate : 6 107 kb/s

    Encoded date : UTC 2021-11-12 04:21:17

    Writing application : mkvmerge v62.0.0 ('Apollo') 64-bit

    Writing library : libebml v1.4.2 + libmatroska v1.6.4



    Video

    ID : 1

    Format : AVC

    Format/Info : Advanced Video Codec

    Format profile : [email protected]

    Format settings : 2 Ref Frames

    Format settings, CABAC : No

    Format settings, Reference frames : 2 frames

    Codec ID : V_MPEG4/ISO/AVC

    Duration : 2 h 28 min

    Bit rate : 6 000 kb/s

    Width : 1 280 pixels

    Height : 720 pixels

    Display aspect ratio : 16:9

    Frame rate mode : Constant

    Frame rate : 23.976 (23976/1000) FPS

    Color space : YUV

    Chroma subsampling : 4:2:0

    Bit depth : 8 bits

    Scan type : Progressive

    Bits/(Pixel*Frame) : 0.272

    Stream size : 6.19 GiB (98%)

    Writing library : x264 core 142

    Audio

    ID : 2

    Format : AAC LC

    Format/Info : Advanced Audio Codec Low Complexity

    Codec ID : A_AAC-2

    Duration : 2 h 28 min

    Bit rate : 125 kb/s

    Channel(s) : 6 channels

    Channel layout : C L R Ls Rs LFE

    Sampling rate : 48.0 kHz

    Frame rate : 46.875 FPS (1024 SPF)

    Compression mode : Lossy

    Delay relative to video : -21 ms

    Stream size : 132 MiB (2%)

    Default : Yes

    Forced : No


    [​IMG]
    [​IMG]
    [​IMG]
    [​IMG]
    [​IMG]
    [​IMG]
    [​IMG]
    [​IMG]
    [​IMG]
    [​IMG]
    [​IMG]
    [​IMG]

    [​IMG]

    Anh hùng cứu mỹ nhân1080p

    Nhấn nút Cảm ơn (dưới chân bài) để thấy link!


    bản 720p

    Nhấn nút Cảm ơn (dưới chân bài) để thấy link!


    Đã có bản 720p phim này ở mục download fshare, bạn nào thích bản 720p cứ chọn tải link Fshare



    Danh sách các phim 1080p mà HLIEU đã post


    HLIEU








     
    Chỉnh sửa cuối: 14/11/21
    xkvnn2, cong trung, pwangdel and 6 others like this.

Chia sẻ trang này