[Hành động] The Last Duel 2021 1080p Bluray DTS-HD MA 7.1 X264 -Trận Chiến Cuối Cùng

Thảo luận trong 'Fshare.vn' bắt đầu bởi xemaydinh, 4/12/21.

  1. xemaydinh

    xemaydinh Tem

    Tham gia ngày:
    3/7/10
    Bài viết:
    36,042
    Đã được cảm ơn:
    191,097
    Mới cập nhật LorD,HiDt,remux 4K



    The Last Duel 2021 1080p BluRay DD+7 1 x264-LoRD

    Trận Chiến Cuối Cùng
    [​IMG]


    Thông tin phim:

    The Last Duel được chuyển thể từ bộ tiểu thuyết cùng tên của Eric Jager, xuất bản vào năm 2004 và lấy cảm hứng từ 1 sự kiện có thật. Đặt trong bối cảnh Chiến tranh Trăm năm Anh - Pháp (Hundred Years War), bộ phim này xoay quanh trận tử chiến giữa hiệp sĩ Jean de Carrouges và hộ vệ Jacques Le Gris. Cả 2 vốn là những người bạn tốt của nhau, nhưng rồi mọi chuyện nhanh chóng thay đổi 180 độ khi Jacques bị cáo buộc tội danh cưỡng bức Marguerite, phu nhân của Jean. Đương nhiên, Jacques phủ nhận chuyện này và đẩy mâu thuẫn với người bạn cũ lên đến đỉnh điểm.

    Trong khi 2 người đàn ông quyết định giải quyết ân oán bằng lưỡi kiếm trong 1 trận tử chiến, Marguerite quyết định mạnh dạn đứng ra vạch tội kẻ đã xâm hại mình. Tuy nhiên, dường như lời khẳng định của Marguerite là không đủ thuyết phục, và cả 3 sẽ đành phải phó mặc số phận vào cuộc chiến sắp tới. Ở những giây cuối cùng, hình phạt dành cho kẻ có tội đã được tiết lộ: Đó chính là thiêu sống.



    The Last Duel 2021 1080p BluRay DD+7.1 x264-LoRD


    GENERAL iNFORMATiON
    iMDB LiNK......: https://www.imdb.com/title/tt4244994/
    GENRE..........: |Action|Drama|History|Thriller|
    RELEASE DATE...: 04/12/2021
    NUMBER ENCODE..: 1582
    ENCODER........: Antikor


    TECHNICAL iNFORMATiON
    RELEASE NAME...: The Last Duel 2021 1080p BluRay DD+7.1 x264-LoRD
    RELEASE SiZE...: 17.2 GiB
    RUNTiME........: 2:32:43[h:m:s]
    ViDEO CODEC....: x264,crf,[email protected]
    FRAMERATE......: 23.976 fps
    BiTRATE........: 15.1 Mb/s->Variable
    ASPECT RATiO...: 2.40:1
    RESOLUTiON.....: 1920x804p
    CHAPTERS.......: Yes
    AUDiO#1........: English DD+7.1 @ 1024 Kbps->[Encoded with Adobe Audition]
    SUBTiTLES......: eng,tur->[.srt]
    SOURCE.........: 1080p EUR Blu-Ray AVC DTS-HD MA 7.1-CYBER[Thx!]


    #x264 LOG:
    x264 [info]: frame I:1527 Avg QP:12.16 size:238685
    x264 [info]: frame P:46640 Avg QP:13.35 size:119539
    x264 [info]: frame B:171530 Avg QP:14.61 size:66098
    x264 [info]: consecutive B-frames:2.6% 2.2% 9.8% 10.4% 13.6% 46.1% 8.0% 2.8% 2.6% 1.9%
    Encoded 219697 Frames, 17.20 fps, 15084.38 kb/s ~ Encoding Duration 3:32:54





    mhd https://www.hdvietnam.com/threads/h...y-dd5-1x264-xmd-tran-chien-cuoi-cung.1739953/

    720p https://www.hdvietnam.com/threads/h...ray-dts-hd-x264-tran-chien-cuoi-cung.1739952/

    1080p https://www.hdvietnam.com/threads/h...-hd-ma-7-1-x264-tran-chien-cuoi-cung.1739773/

    4K https://www.hdvietnam.com/threads/4...-truehd-atmos-7-tran-chien-cuoi-cung.1741431/

    Thuyết minh

    Remux https://www.hdvietnam.com/threads/h...c-dts-hd-ma-7-1-tran-chien-cuoi-cung.1739778/

    Remux 4K https://www.hdvietnam.com/threads/r...10-hevc-atmos-t-tran-chien-cuoi-cung.1741430/

    ISO
     
    Chỉnh sửa cuối: 12/12/21
  2. xemaydinh

    xemaydinh Tem

    Tham gia ngày:
    3/7/10
    Bài viết:
    36,042
    Đã được cảm ơn:
    191,097
  3. cfc2003

    cfc2003 Active Member

    Tham gia ngày:
    27/8/09
    Bài viết:
    472
    Đã được cảm ơn:
    116
    Giới tính:
    Nam
    Chưa có sub Vị hả bác
     
  4. xemaydinh

    xemaydinh Tem

    Tham gia ngày:
    3/7/10
    Bài viết:
    36,042
    Đã được cảm ơn:
    191,097
    có rùi bác nhé
     
  5. xemaydinh

    xemaydinh Tem

    Tham gia ngày:
    3/7/10
    Bài viết:
    36,042
    Đã được cảm ơn:
    191,097
    The Last Duel 2021 1080p Bluray DTS-HD MA 7.1 X264-EVO

    Trận Chiến Cuối Cùng
    [​IMG]


    Thông tin phim:
    The Last Duel được chuyển thể từ bộ tiểu thuyết cùng tên của Eric Jager, xuất bản vào năm 2004 và lấy cảm hứng từ 1 sự kiện có thật. Đặt trong bối cảnh Chiến tranh Trăm năm Anh - Pháp (Hundred Years War), bộ phim này xoay quanh trận tử chiến giữa hiệp sĩ Jean de Carrouges và hộ vệ Jacques Le Gris. Cả 2 vốn là những người bạn tốt của nhau, nhưng rồi mọi chuyện nhanh chóng thay đổi 180 độ khi Jacques bị cáo buộc tội danh cưỡng bức Marguerite, phu nhân của Jean. Đương nhiên, Jacques phủ nhận chuyện này và đẩy mâu thuẫn với người bạn cũ lên đến đỉnh điểm.

    Trong khi 2 người đàn ông quyết định giải quyết ân oán bằng lưỡi kiếm trong 1 trận tử chiến, Marguerite quyết định mạnh dạn đứng ra vạch tội kẻ đã xâm hại mình. Tuy nhiên, dường như lời khẳng định của Marguerite là không đủ thuyết phục, và cả 3 sẽ đành phải phó mặc số phận vào cuộc chiến sắp tới. Ở những giây cuối cùng, hình phạt dành cho kẻ có tội đã được tiết lộ: Đó chính là thiêu sống.


    General
    Filename.......: The.Last.Duel.2021.1080p.Bluray.DTS-HD.MA.7.1.X264-EVO.mkv
    FileSize.......: 17.3 GiB
    Duration.......: 2 h 32 min


    Video
    Codec..........: AVC x264 [email protected]
    Resolution.....: 1920x804
    Aspect ratio...: 2.40:1
    Bit rate.......: 11.0 Mb/s
    Frame rate.....: 23.976 fps


    Audio
    Language.......: English
    Channels.......: 6 CH
    Format.........: Dolby Digital
    Bit rate.......: 640 kb/s
    (Surround)


    Audio (#2)
    Language.......: English
    Channels.......: 8 CH
    Format.........: DTS-HD Master Audio
    Bit rate.......: 4 727 kb/s


    Subtitle.......: English
    Subtitle.......: English





    mhd https://www.hdvietnam.com/threads/h...y-dd5-1x264-xmd-tran-chien-cuoi-cung.1739953/

    720p https://www.hdvietnam.com/threads/h...ray-dts-hd-x264-tran-chien-cuoi-cung.1739952/

    1080p https://www.hdvietnam.com/threads/h...-hd-ma-7-1-x264-tran-chien-cuoi-cung.1739773/

    Thuyết minh

    Remux https://www.hdvietnam.com/threads/h...c-dts-hd-ma-7-1-tran-chien-cuoi-cung.1739778/

    ISO
     
  6. xemaydinh

    xemaydinh Tem

    Tham gia ngày:
    3/7/10
    Bài viết:
    36,042
    Đã được cảm ơn:
    191,097
    The.Last.Duel.2021.1080p.BluRay.x264.DTS-HD.MA.7.1-FGT

    Trận Chiến Cuối Cùng
    [​IMG]


    Thông tin phim:
    The Last Duel được chuyển thể từ bộ tiểu thuyết cùng tên của Eric Jager, xuất bản vào năm 2004 và lấy cảm hứng từ 1 sự kiện có thật. Đặt trong bối cảnh Chiến tranh Trăm năm Anh - Pháp (Hundred Years War), bộ phim này xoay quanh trận tử chiến giữa hiệp sĩ Jean de Carrouges và hộ vệ Jacques Le Gris. Cả 2 vốn là những người bạn tốt của nhau, nhưng rồi mọi chuyện nhanh chóng thay đổi 180 độ khi Jacques bị cáo buộc tội danh cưỡng bức Marguerite, phu nhân của Jean. Đương nhiên, Jacques phủ nhận chuyện này và đẩy mâu thuẫn với người bạn cũ lên đến đỉnh điểm.

    Trong khi 2 người đàn ông quyết định giải quyết ân oán bằng lưỡi kiếm trong 1 trận tử chiến, Marguerite quyết định mạnh dạn đứng ra vạch tội kẻ đã xâm hại mình. Tuy nhiên, dường như lời khẳng định của Marguerite là không đủ thuyết phục, và cả 3 sẽ đành phải phó mặc số phận vào cuộc chiến sắp tới. Ở những giây cuối cùng, hình phạt dành cho kẻ có tội đã được tiết lộ: Đó chính là thiêu sống.



    Video
    ID : 1
    Format : AVC
    Format/Info : Advanced Video Codec
    Format profile : [email protected]
    Format settings : CABAC / 4 Ref Frames
    Format settings, CABAC : Yes
    Format settings, Reference frames : 4 frames
    Codec ID : V_MPEG4/ISO/AVC
    Duration : 2 h 32 min
    Bit rate : 11.5 Mb/s
    Width : 1 920 pixels
    Height : 804 pixels
    Display aspect ratio : 2.40:1
    Frame rate mode : Constant
    Frame rate : 23.976 (24000/1001) FPS
    Color space : YUV
    Chroma subsampling : 4:2:0
    Bit depth : 8 bits
    Scan type : Progressive
    Bits/(Pixel*Frame) : 0.311
    Stream size : 12.3 GiB (71%)
    Writing library : x264 core 148 r2795M aaa9aa8
    Encoding settings : cabac=1 / ref=4 / deblock=1:-2:-2 / analyse=0x3:0x113 / me=umh / subme=9 / psy=1 / psy_rd=1.00:0.15 / mixed_ref=1 / me_range=16 / chroma_me=1 / trellis=2 / 8x8dct=1 / cqm=0 / deadzone=21,11 / fast_pskip=1 / chroma_qp_offset=-3 / threads=24 / lookahead_threads=3 / sliced_threads=0 / nr=0 / decimate=1 / interlaced=0 / bluray_compat=0 / constrained_intra=0 / bframes=3 / b_pyramid=2 / b_adapt=1 / b_bias=0 / direct=3 / weightb=1 / open_gop=0 / weightp=2 / keyint=250 / keyint_min=25 / scenecut=40 / intra_refresh=0 / rc_lookahead=50 / rc=2pass / mbtree=1 / bitrate=11500 / ratetol=1.0 / qcomp=0.60 / qpmin=0 / qpmax=69 / qpstep=4 / cplxblur=20.0 / qblur=0.5 / vbv_maxrate=31250 / vbv_bufsize=31250 / nal_hrd=none / filler=0 / ip_ratio=1.40 / aq=1:1.00
    Language : English
    Default : Yes
    Forced : No

    Audio
    ID : 2
    ID in the original source medium : 4352 (0x1100)
    Format : DTS XLL
    Format/Info : Digital Theater Systems
    Commercial name : DTS-HD Master Audio
    Codec ID : A_DTS
    Duration : 2 h 32 min
    Bit rate mode : Variable
    Bit rate : 4 727 kb/s
    Channel(s) : 8 channels
    Channel layout : C L R LFE Lb Rb Lss Rss
    Sampling rate : 48.0 kHz
    Frame rate : 93.750 FPS (512 SPF)
    Bit depth : 24 bits
    Compression mode : Lossless
    Stream size : 5.04 GiB (29%)
    Title : DTS-HD MA 7.1
    Language : English
    Default : Yes
    Forced : No
    Original source medium : Blu-ray

    Text #1
    ID : 3
    Format : UTF-8
    Codec ID : S_TEXT/UTF8
    Codec ID/Info : UTF-8 Plain Text
    Duration : 23 s 273 ms
    Bit rate : 47 b/s
    Count of elements : 6
    Stream size : 139 Bytes (0%)
    Title : FORCED
    Language : English
    Default : No
    Forced : Yes

    Text #2
    ID : 4
    Format : UTF-8
    Codec ID : S_TEXT/UTF8
    Codec ID/Info : UTF-8 Plain Text
    Duration : 2 h 22 min
    Bit rate : 48 b/s
    Count of elements : 1709
    Stream size : 50.8 KiB (0%)
    Language : English
    Default : Yes
    Forced : No

    Text #3
    ID : 5
    Format : UTF-8
    Codec ID : S_TEXT/UTF8
    Codec ID/Info : UTF-8 Plain Text
    Duration : 2 h 28 min
    Bit rate : 55 b/s
    Count of elements : 2156
    Stream size : 61.0 KiB (0%)
    Title : SDH
    Language : English
    Default : No
    Forced : No

    Text #4
    ID : 6
    ID in the original source medium : 4608 (0x1200)
    Format : PGS
    Muxing mode : zlib
    Codec ID : S_HDMV/PGS
    Codec ID/Info : Picture based subtitle format used on BDs/HD-DVDs
    Duration : 2 h 28 min
    Bit rate : 41.7 kb/s
    Count of elements : 4336
    Stream size : 44.4 MiB (0%)
    Language : English
    Default : No
    Forced : No
    Original source medium : Blu-ray

    Text #5
    ID : 7
    ID in the original source medium : 4609 (0x1201)
    Format : PGS
    Muxing mode : zlib
    Codec ID : S_HDMV/PGS
    Codec ID/Info : Picture based subtitle format used on BDs/HD-DVDs
    Duration : 2 h 31 min
    Bit rate : 28.3 kb/s
    Count of elements : 3318
    Stream size : 30.7 MiB (0%)
    Language : Italian
    Default : No
    Forced : No
    Original source medium : Blu-ray

    Text #6
    ID : 8
    ID in the original source medium : 4610 (0x1202)
    Format : PGS
    Muxing mode : zlib
    Codec ID : S_HDMV/PGS
    Codec ID/Info : Picture based subtitle format used on BDs/HD-DVDs
    Duration : 2 h 31 min
    Bit rate : 29.9 kb/s
    Count of elements : 3386
    Stream size : 32.4 MiB (0%)
    Language : Spanish
    Default : No
    Forced : No
    Original source medium : Blu-ray

    Text #7
    ID : 9
    ID in the original source medium : 4611 (0x1203)
    Format : PGS
    Muxing mode : zlib
    Codec ID : S_HDMV/PGS
    Codec ID/Info : Picture based subtitle format used on BDs/HD-DVDs
    Duration : 2 h 31 min
    Bit rate : 30.2 kb/s
    Count of elements : 3390
    Stream size : 32.8 MiB (0%)
    Language : Czech
    Default : No
    Forced : No
    Original source medium : Blu-ray

    Text #8
    ID : 10
    ID in the original source medium : 4612 (0x1204)
    Format : PGS
    Muxing mode : zlib
    Codec ID : S_HDMV/PGS
    Codec ID/Info : Picture based subtitle format used on BDs/HD-DVDs
    Duration : 2 h 31 min
    Bit rate : 26.7 kb/s
    Count of elements : 3052
    Stream size : 29.0 MiB (0%)
    Language : Polish
    Default : No
    Forced : No
    Original source medium : Blu-ray

    Text #9
    ID : 11
    ID in the original source medium : 4613 (0x1205)
    Format : PGS
    Muxing mode : zlib
    Codec ID : S_HDMV/PGS
    Codec ID/Info : Picture based subtitle format used on BDs/HD-DVDs
    Duration : 23 s 294 ms
    Bit rate : 33.6 kb/s
    Count of elements : 12
    Stream size : 95.6 KiB (0%)
    Language : English
    Default : No
    Forced : No
    Original source medium : Blu-ray

    Text #10
    ID : 12
    ID in the original source medium : 4614 (0x1206)
    Format : PGS
    Muxing mode : zlib
    Codec ID : S_HDMV/PGS
    Codec ID/Info : Picture based subtitle format used on BDs/HD-DVDs
    Duration : 2 h 22 min
    Bit rate : 511 b/s
    Count of elements : 50
    Stream size : 535 KiB (0%)
    Language : Italian
    Default : No
    Forced : No
    Original source medium : Blu-ray

    Text #11
    ID : 13
    ID in the original source medium : 4615 (0x1207)
    Format : PGS
    Muxing mode : zlib
    Codec ID : S_HDMV/PGS
    Codec ID/Info : Picture based subtitle format used on BDs/HD-DVDs
    Duration : 2 h 22 min
    Bit rate : 563 b/s
    Count of elements : 56
    Stream size : 589 KiB (0%)
    Language : Spanish
    Default : No
    Forced : No
    Original source medium : Blu-ray

    Text #12
    ID : 14
    ID in the original source medium : 4616 (0x1208)
    Format : PGS
    Muxing mode : zlib
    Codec ID : S_HDMV/PGS
    Codec ID/Info : Picture based subtitle format used on BDs/HD-DVDs
    Duration : 2 h 22 min
    Bit rate : 429 b/s
    Count of elements : 38
    Stream size : 450 KiB (0%)
    Language : Polish
    Default : No
    Forced : No
    Original source medium : Blu-ray

    Menu
    00:00:00.000 : en:Chapter 01
    00:05:02.635 : en:Chapter 02
    00:09:42.456 : en:Chapter 03
    00:17:43.645 : en:Chapter 04
    00:25:59.933 : en:Chapter 05
    00:33:25.294 : en:Chapter 06
    00:38:50.995 : en:Chapter 07
    00:42:34.593 : en:Chapter 08
    00:54:23.510 : en:Chapter 09
    01:05:52.490 : en:Chapter 10
    01:17:07.664 : en:Chapter 11
    01:25:24.702 : en:Chapter 12
    01:32:50.273 : en:Chapter 13
    01:40:17.177 : en:Chapter 14
    01:52:06.720 : en:Chapter 15
    02:05:28.521 : en:Chapter 16
    02:22:25.578 : en:Chapter 17




    mhd https://www.hdvietnam.com/threads/h...y-dd5-1x264-xmd-tran-chien-cuoi-cung.1739953/

    720p https://www.hdvietnam.com/threads/h...ray-dts-hd-x264-tran-chien-cuoi-cung.1739952/

    1080p https://www.hdvietnam.com/threads/h...-hd-ma-7-1-x264-tran-chien-cuoi-cung.1739773/

    Thuyết minh

    Remux https://www.hdvietnam.com/threads/h...c-dts-hd-ma-7-1-tran-chien-cuoi-cung.1739778/

    ISO
     
    dungoc cảm ơn bài này.
  7. xemaydinh

    xemaydinh Tem

    Tham gia ngày:
    3/7/10
    Bài viết:
    36,042
    Đã được cảm ơn:
    191,097
    The Last Duel 2021 1080p BluRay DD+7.1 x264-HiDt

    Trận Chiến Cuối Cùng
    [​IMG]


    Thông tin phim:
    The Last Duel được chuyển thể từ bộ tiểu thuyết cùng tên của Eric Jager, xuất bản vào năm 2004 và lấy cảm hứng từ 1 sự kiện có thật. Đặt trong bối cảnh Chiến tranh Trăm năm Anh - Pháp (Hundred Years War), bộ phim này xoay quanh trận tử chiến giữa hiệp sĩ Jean de Carrouges và hộ vệ Jacques Le Gris. Cả 2 vốn là những người bạn tốt của nhau, nhưng rồi mọi chuyện nhanh chóng thay đổi 180 độ khi Jacques bị cáo buộc tội danh cưỡng bức Marguerite, phu nhân của Jean. Đương nhiên, Jacques phủ nhận chuyện này và đẩy mâu thuẫn với người bạn cũ lên đến đỉnh điểm.

    Trong khi 2 người đàn ông quyết định giải quyết ân oán bằng lưỡi kiếm trong 1 trận tử chiến, Marguerite quyết định mạnh dạn đứng ra vạch tội kẻ đã xâm hại mình. Tuy nhiên, dường như lời khẳng định của Marguerite là không đủ thuyết phục, và cả 3 sẽ đành phải phó mặc số phận vào cuộc chiến sắp tới. Ở những giây cuối cùng, hình phạt dành cho kẻ có tội đã được tiết lộ: Đó chính là thiêu sống.




    The Last Duel 2021 1080p BluRay DD+7.1 x264-HiDt

    Source: The Last Duel 2021 1080p EUR Blu-Ray AVC DTS-HD MA 7.1-CYBER (Thanks)

    Note:
    Zoned scenes that need it
    Intro have been debanded

    ---GENERAL----
    SIZE............: 19.5 GiB
    RUNTIME.........: 2 h 32 min

    ---VIDEO----
    Codec...........: AVC
    Resolution......: 1920x804
    Bit rate........: 16.8 Mb/s
    Frame rate......: 23.976 fps

    ---AUDIO----
    Format..........: Dolby Digital Plus
    Channels........: 8
    Sample rate.....: 48.0 kHz
    Bit rate........: 1536 Kbps
    Language........: English (Surround 7.1)

    SUBTITLES.......: English
    SUBTITLES.......: English (SDH)
    SUBTITLES.......: Arabic
    SUBTITLES.......: Bulgarian
    SUBTITLES.......: Chinese
    SUBTITLES.......: Czech
    SUBTITLES.......: Danish
    SUBTITLES.......: Dutch
    SUBTITLES.......: Finnish
    SUBTITLES.......: French
    SUBTITLES.......: German
    SUBTITLES.......: Greek
    SUBTITLES.......: Hungarian
    SUBTITLES.......: Icelandic
    SUBTITLES.......: Italian
    SUBTITLES.......: Japanese
    SUBTITLES.......: Korean
    SUBTITLES.......: Norwegian
    SUBTITLES.......: Polish
    SUBTITLES.......: Portuguese (BR)
    SUBTITLES.......: Portuguese (PT)
    SUBTITLES.......: Romanian
    SUBTITLES.......: Slovenian
    SUBTITLES.......: Spanish (Castilian)
    SUBTITLES.......: Spanish (Latin)
    SUBTITLES.......: Swedish
    SUBTITLES.......: Turkish

    x264 Log:
    x264 [info]: frame I:1450 Avg QP:12.49 size:249426
    x264 [info]: frame P:47580 Avg QP:13.98 size:113858
    x264 [info]: frame B:170667 Avg QP:14.31 size: 78763





    mhd https://www.hdvietnam.com/threads/h...y-dd5-1x264-xmd-tran-chien-cuoi-cung.1739953/

    720p https://www.hdvietnam.com/threads/h...ray-dts-hd-x264-tran-chien-cuoi-cung.1739952/

    1080p https://www.hdvietnam.com/threads/h...-hd-ma-7-1-x264-tran-chien-cuoi-cung.1739773/

    Thuyết minh

    Remux https://www.hdvietnam.com/threads/h...c-dts-hd-ma-7-1-tran-chien-cuoi-cung.1739778/

    ISO
     
  8. xemaydinh

    xemaydinh Tem

    Tham gia ngày:
    3/7/10
    Bài viết:
    36,042
    Đã được cảm ơn:
    191,097
    Mới cập nhật LorD,HiDt



    The Last Duel 2021 1080p BluRay x264 DTS-WiKi

    Trận Chiến Cuối Cùng
    [​IMG]


    Thông tin phim:
    The Last Duel được chuyển thể từ bộ tiểu thuyết cùng tên của Eric Jager, xuất bản vào năm 2004 và lấy cảm hứng từ 1 sự kiện có thật. Đặt trong bối cảnh Chiến tranh Trăm năm Anh - Pháp (Hundred Years War), bộ phim này xoay quanh trận tử chiến giữa hiệp sĩ Jean de Carrouges và hộ vệ Jacques Le Gris. Cả 2 vốn là những người bạn tốt của nhau, nhưng rồi mọi chuyện nhanh chóng thay đổi 180 độ khi Jacques bị cáo buộc tội danh cưỡng bức Marguerite, phu nhân của Jean. Đương nhiên, Jacques phủ nhận chuyện này và đẩy mâu thuẫn với người bạn cũ lên đến đỉnh điểm.

    Trong khi 2 người đàn ông quyết định giải quyết ân oán bằng lưỡi kiếm trong 1 trận tử chiến, Marguerite quyết định mạnh dạn đứng ra vạch tội kẻ đã xâm hại mình. Tuy nhiên, dường như lời khẳng định của Marguerite là không đủ thuyết phục, và cả 3 sẽ đành phải phó mặc số phận vào cuộc chiến sắp tới. Ở những giây cuối cùng, hình phạt dành cho kẻ có tội đã được tiết lộ: Đó chính là thiêu sống.




    General
    Unique ID : 60285547685873841544811104191179517180 (0x2D5A92FB81EFE25F7245B27E8835ECFC)
    Complete name : I:\1080电影\The.Last.Duel.2021.1080p.BluRay.x264.DTS-WiKi\The.Last.Duel.2021.1080p.BluRay.x264.DTS-WiKi.mkv
    Format : Matroska
    Format version : Version 4
    File size : 14.0 GiB
    Duration : 2 h 32 min
    Overall bit rate : 13.1 Mb/s
    Encoded date : UTC 2021-12-06 12:59:43
    Writing application : mkvmerge v55.0.0 ('Waiting For Space') 64-bit
    Writing library : libebml v1.4.2 + libmatroska v1.6.4

    Video
    ID : 1
    Format : AVC
    Format/Info : Advanced Video Codec
    Format profile : [email protected]
    Format settings : CABAC / 5 Ref Frames
    Format settings, CABAC : Yes
    Format settings, Reference frames : 5 frames
    Codec ID : V_MPEG4/ISO/AVC
    Duration : 2 h 32 min
    Bit rate : 11.6 Mb/s
    Width : 1 920 pixels
    Height : 804 pixels
    Display aspect ratio : 2.40:1
    Frame rate mode : Constant
    Frame rate : 23.976 (24000/1001) FPS
    Color space : YUV
    Chroma subsampling : 4:2:0
    Bit depth : 8 bits
    Scan type : Progressive
    Bits/(Pixel*Frame) : 0.314
    Stream size : 12.4 GiB (88%)
    Writing library : x264 core 129 r2245 bc13772
    Encoding settings : cabac=1 / ref=5 / deblock=1:-3:-3 / analyse=0x3:0x133 / me=umh / subme=11 / psy=1 / psy_rd=1.05:0.05 / mixed_ref=1 / me_range=64 / chroma_me=1 / trellis=2 / 8x8dct=1 / cqm=0 / deadzone=21,11 / fast_pskip=0 / chroma_qp_offset=-3 / threads=24 / lookahead_threads=4 / sliced_threads=0 / nr=0 / decimate=1 / interlaced=0 / bluray_compat=0 / constrained_intra=0 / bframes=10 / b_pyramid=2 / b_adapt=2 / b_bias=0 / direct=3 / weightb=1 / open_gop=0 / weightp=2 / keyint=250 / keyint_min=23 / scenecut=40 / intra_refresh=0 / rc_lookahead=60 / rc=2pass / mbtree=1 / bitrate=11611 / ratetol=1.0 / qcomp=0.60 / qpmin=0 / qpmax=69 / qpstep=4 / cplxblur=20.0 / qblur=0.5 / vbv_maxrate=40000 / vbv_bufsize=30000 / nal_hrd=none / ip_ratio=1.40 / aq=1:0.80
    Language : English
    Default : Yes
    Forced : No

    Audio
    ID : 2
    Format : DTS
    Format/Info : Digital Theater Systems
    Codec ID : A_DTS
    Duration : 2 h 32 min
    Bit rate mode : Constant
    Bit rate : 1 509 kb/s
    Channel(s) : 6 channels
    Channel layout : C L R Ls Rs LFE
    Sampling rate : 48.0 kHz
    Frame rate : 93.750 FPS (512 SPF)
    Bit depth : 24 bits
    Compression mode : Lossy
    Stream size : 1.61 GiB (12%)
    Language : English
    Default : Yes
    Forced : No

    Text #1
    ID : 3
    Format : UTF-8
    Codec ID : S_TEXT/UTF8
    Codec ID/Info : UTF-8 Plain Text
    Duration : 2 h 31 min
    Bit rate : 41 b/s
    Count of elements : 1694
    Stream size : 45.9 KiB (0%)
    Title : 简体
    Language : Chinese
    Default : Yes
    Forced : No

    Text #2
    ID : 4
    Format : UTF-8
    Codec ID : S_TEXT/UTF8
    Codec ID/Info : UTF-8 Plain Text
    Duration : 2 h 31 min
    Bit rate : 35 b/s
    Count of elements : 1697
    Stream size : 39.3 KiB (0%)
    Title : 繁体
    Language : Chinese
    Default : No
    Forced : No

    Text #3
    ID : 5
    Format : UTF-8
    Codec ID : S_TEXT/UTF8
    Codec ID/Info : UTF-8 Plain Text
    Duration : 2 h 31 min
    Bit rate : 37 b/s
    Count of elements : 1693
    Stream size : 41.7 KiB (0%)
    Title : 港式繁体
    Language : Chinese
    Default : No
    Forced : No






    mhd https://www.hdvietnam.com/threads/h...y-dd5-1x264-xmd-tran-chien-cuoi-cung.1739953/

    720p https://www.hdvietnam.com/threads/h...ray-dts-hd-x264-tran-chien-cuoi-cung.1739952/

    1080p https://www.hdvietnam.com/threads/h...-hd-ma-7-1-x264-tran-chien-cuoi-cung.1739773/

    Thuyết minh

    Remux https://www.hdvietnam.com/threads/h...c-dts-hd-ma-7-1-tran-chien-cuoi-cung.1739778/

    ISO
     
  9. xemaydinh

    xemaydinh Tem

    Tham gia ngày:
    3/7/10
    Bài viết:
    36,042
    Đã được cảm ơn:
    191,097
  10. xemaydinh

    xemaydinh Tem

    Tham gia ngày:
    3/7/10
    Bài viết:
    36,042
    Đã được cảm ơn:
    191,097
  11. xemaydinh

    xemaydinh Tem

    Tham gia ngày:
    3/7/10
    Bài viết:
    36,042
    Đã được cảm ơn:
    191,097
    Mới cập nhật LorD,HiDt,remux 4K



    The Last Duel 2021 1080p BluRay 1080p DTS-HD MA7.1 x265 10bit-BeiTai

    Trận Chiến Cuối Cùng
    [​IMG]


    Thông tin phim:
    The Last Duel được chuyển thể từ bộ tiểu thuyết cùng tên của Eric Jager, xuất bản vào năm 2004 và lấy cảm hứng từ 1 sự kiện có thật. Đặt trong bối cảnh Chiến tranh Trăm năm Anh - Pháp (Hundred Years War), bộ phim này xoay quanh trận tử chiến giữa hiệp sĩ Jean de Carrouges và hộ vệ Jacques Le Gris. Cả 2 vốn là những người bạn tốt của nhau, nhưng rồi mọi chuyện nhanh chóng thay đổi 180 độ khi Jacques bị cáo buộc tội danh cưỡng bức Marguerite, phu nhân của Jean. Đương nhiên, Jacques phủ nhận chuyện này và đẩy mâu thuẫn với người bạn cũ lên đến đỉnh điểm.

    Trong khi 2 người đàn ông quyết định giải quyết ân oán bằng lưỡi kiếm trong 1 trận tử chiến, Marguerite quyết định mạnh dạn đứng ra vạch tội kẻ đã xâm hại mình. Tuy nhiên, dường như lời khẳng định của Marguerite là không đủ thuyết phục, và cả 3 sẽ đành phải phó mặc số phận vào cuộc chiến sắp tới. Ở những giây cuối cùng, hình phạt dành cho kẻ có tội đã được tiết lộ: Đó chính là thiêu sống.



    [RELEASE INFORMATION]
    RELEASE.NAME...: The.Last.Duel.2021.1080p.BluRay.1080p.DTS-HD.MA7.1.x265.10bit-BeiTai.mkv
    RELEASE.TIME...: Dec 5 2021
    IMDB.LINK......: https://www.imdb.com/title/tt4244994/
    IMDB.RATING....: 7.6/10 36,665
    GENRE..........: Action, Drama, History
    RUN.TIME.......: 2:32:43.195 (h:m:s.ms)
    VIDEO.CODEC....: HEVC, [email protected]@High, 24/1.001 fps
    x264 LOG.......: Ref=5, B-frame=6, crf=17
    BIT.RATE.......: 4216 kbps, 9.73 GB
    RESOLUTION.....: 1920 x 804, 2.388: 1
    AUDIO1.........: English DTS-HD Master Audio 7.1 @ 4727 kbps
    CHAPTERS.......: YES
    SUBTiTLES1.....: Eng/SUP
    SUBTiTLES2.....: Chs/SUP 简体
    SUBTiTLES3.....: Cht/SUP 繁体
    SUBTiTLES4.....: Chs/SUP 简英双语
    SUBTiTLES5.....: Cht/SUP 繁英双语
    RIP.SOURCE.....: [email protected]e
    ENCODER........: anonymous

    ---[Information] [2021/12/5 9:39:40] x265 [info]: frame I: 2094, Avg QP:16.00 kb/s: 24491.42
    ---[Information] [2021/12/5 9:39:40] x265 [info]: frame P: 42252, Avg QP:17.07 kb/s: 11808.14
    ---[Information] [2021/12/5 9:39:40] x265 [info]: frame B: 175351, Avg QP:21.41 kb/s: 2144.51




    mhd https://www.hdvietnam.com/threads/h...y-dd5-1x264-xmd-tran-chien-cuoi-cung.1739953/

    720p https://www.hdvietnam.com/threads/h...ray-dts-hd-x264-tran-chien-cuoi-cung.1739952/

    1080p https://www.hdvietnam.com/threads/h...-hd-ma-7-1-x264-tran-chien-cuoi-cung.1739773/

    4K https://www.hdvietnam.com/threads/4...-truehd-atmos-7-tran-chien-cuoi-cung.1741431/

    Thuyết minh

    Remux https://www.hdvietnam.com/threads/h...c-dts-hd-ma-7-1-tran-chien-cuoi-cung.1739778/

    Remux 4K https://www.hdvietnam.com/threads/r...10-hevc-atmos-t-tran-chien-cuoi-cung.1741430/

    ISO
     
  12. xemaydinh

    xemaydinh Tem

    Tham gia ngày:
    3/7/10
    Bài viết:
    36,042
    Đã được cảm ơn:
    191,097
  13. xemaydinh

    xemaydinh Tem

    Tham gia ngày:
    3/7/10
    Bài viết:
    36,042
    Đã được cảm ơn:
    191,097
  14. xemaydinh

    xemaydinh Tem

    Tham gia ngày:
    3/7/10
    Bài viết:
    36,042
    Đã được cảm ơn:
    191,097
  15. xemaydinh

    xemaydinh Tem

    Tham gia ngày:
    3/7/10
    Bài viết:
    36,042
    Đã được cảm ơn:
    191,097
  16. xemaydinh

    xemaydinh Tem

    Tham gia ngày:
    3/7/10
    Bài viết:
    36,042
    Đã được cảm ơn:
    191,097
  17. xemaydinh

    xemaydinh Tem

    Tham gia ngày:
    3/7/10
    Bài viết:
    36,042
    Đã được cảm ơn:
    191,097
  18. xemaydinh

    xemaydinh Tem

    Tham gia ngày:
    3/7/10
    Bài viết:
    36,042
    Đã được cảm ơn:
    191,097

Chia sẻ trang này