[Hành động|Kinh dị] Lũ chim quái ác - The.Birds.1963.1080p.x264-NaRB.

Thảo luận trong 'Fshare.vn' bắt đầu bởi HLIEU, 15/11/18.

  1. HLIEU

    HLIEU Well-Known Member

    Tham gia ngày:
    12/2/09
    Bài viết:
    394
    Đã được cảm ơn:
    21,270
    Giới tính:
    Nam
    Nghề nghiệp:
    Bác sị Y Khoa chuyên Nội khoa
    Nơi ở:
    Việt Nam
    Lũ chim quái ác: The.Birds.1963.1080p.x264-NaRB

    (Rod Taylor, Jessica Tandy Suzanne Pleshette) )5.23GB-8.63GB

    [​IMG]
    [​IMG]

    Đây là một phim thuộc loại hành động, kinh dị, chấp dẫn từ đầu đến cuối qua tài diễn
    xuất của 3 tài tử của màn ảnh Mỹ làRod Taylor, Jessica Tandy Suzanne Pleshette

    qua đạo diễn phim lừng danh phim kinh dị Alfred Hitchcock.

    Năm 1963, Melanie Daniels tình cờ gặp luật sư bào chữa hình sự Mitch Brenner tại một cửa hàng chim San Francisco.
    Anh này muốn mua một đôi chim yêu cho sinh nhật em gái , giả vờ nhầm cô ấy với một nhân viên bán hàng. Cô ấy tức giận khi phát hiện ra điều này,, nhưng mong gặp lại.Sau đó cô nàng đi đến Bodega gặp anh ta. Tình cờ, cô bị tấn công gần bờ ở phía thị trấn và bị thương bởi một con mòng biển. Mitch, mời cô đến ăn tối, và cô ngập ngừng đồng ý.
    Melanie được biết Mitchcó bà mẹ độc đoán Lydia , và em gái Cathy . Cô cũng kết bạn với giáo viên trường địa phương Annie Hayworth, người yêu cũ của Mitch. Khi cô ở lại cả đêm ở nhà Annie, họ bị giật mình bởi tiếng thét lớn; một con mòng biển đã tự sát bằng cách bay vào cửa trước. Tại bữa tiệc sinh nhật của Cathy vào ngày hôm sau, các vị khách bí tấn công bằng các chim hải âu hung bạo. Tối hôm sau, chim sẻ lại chui vào nhà Brenner qua ống khóig. Melanie lái xe đến rước Cathy đang học đó và đợi lớp học kết thúc, không biết rằng một đàn quạ lớn đang trong sân chơi gần đó Cơn hỗn loạn sau đó lúc các trẻ ra khỏi lớp, khuấy động các lũ quạ tấn công, làm bị thương một số trẻ em.
    Melanie gặp Mitch tại một nhà hàng địa phương Những con chim bắt đầu tấn công mọi người bên ngoài,, một trạm xăng trong khi có người đang đổ đầy xăng khiến xăng, tràn ra ngoài đường. Một người vô ý châm một điếu xì gà, khiến trạm xăng bị cháy bùng. Mitch giải cứu Melanie ở buồng điện thoạiMitch, cô trở về nhà nhà Annie và thấycô này đã bị giết bởi quạ trong khi dẫn Cathy đến nơi an toàn.
    Melanie và Brenners tìm nơi ẩn náu bên trong nhà của gia đình. Nó bị tấn công bởi những con sóng của nhiều loài chim khác nhau, mà nhiều lần gần như phá vỡ thông qua cửa ra vào và cửa sổ chướng ngại vật. Melanie lên cầu thang, vào phòng ngủ của Cathy, nơi cô phát hiện thấy những con chim đã phá vỡ mái nhà. Họ tấn công dữ dội cô, trong phòng cho đến khi Mitch đến giải cứu cô. Melanie bị thương nặng và Mitch khẳng định họ phải đưa cô ấy đến bệnh viện và đề nghị lái xe đến San Francisco. Trong cảnh cuối cùng, chiếc xe chở Melanie, Brenners, và những chú chim cánh cụt do Mitch lái từ từ đi qua hàng ngàn con chim đang chăm sóc nhìn họ một cách đáng ngại.
    Ngoài hình ảnh đẹp, rõ ,cốt truyện thật gây cấn, rất xứng đáng lưu mãi trong số các phim kinh điển hay nhất mọi thời đại; chắc rồi đây bạn sẽ còn muốn xem xem lại nhiều lần nữa.
    Sub Việt được chỉnh lại toàn bộ bởi HLIEU được tích hợp luôn vào phim không để riêng. Dù sao, file srt này không phải hard code nên bạn có thể tách dễ dàng bằng cách dùng MkvextractGUI.exe trong MKV toolnix.
    Hy vọng được các bạn mê say bộ phim hấp dẫn này sẽ cho nhiều comment(mỗi ngày /chỉ cần 1 người) và bài khỏi bị trôi đi đâu mất tiêu, giúp các bạn nào biết trể còn tìm ra được phim này. Nhớ là bạn like chỉ tải phim chưa đủ đâu, mà xin nhớ please comment giùm tác giả khi thấy phim nào quá hay để còn giúp bạn bè khác nữa có cơ hội xem được phim hay như mình

    [​IMG]
    7.7/10
    trên 148,177 người xem​

    [​IMG]


    Thể loại: Hành động,Kinh dị
    Hãng phim Universal pictures
    Sản xuất năm 1963
    Đạo diễn Alfred Hitchcock

    Vai chính:
    Rod Taylor vai Mitch Brenner
    Tippi Hedren vai Melanie Daniels
    Jessica Tandy vai Lydia Brenner
    Suzanne Pleshette vaivAnnie Hayworth
    Veronica Cartwright vai. Cathy Brenner

    [​IMG]


    1)General 1080p
    File size : 8.63 GiB
    Duration : 1 h 59 min
    Overall bit rate : 10.3 Mb/s
    Video 1080p
    Format : MPEG-4 Visual
    Bit rate : 10.0 Mb/s
    Width : 1 920 pixels
    Height : 1 080 pixels
    Display aspect ratio : 16:9
    Stream size : 8.36 GiB (97%)
    Writing library : Lavc56.13.100

    2) General 720p
    File size : 5.23 GiB
    Overall bit rate : 6 267 kb/s
    Video
    Format : MPEG-4 Visual
    Bit rate : 5 945 kb/s
    Width : 1 280 pixels
    Height : 720 pixels
    Frame rate : 23.976 FPS

    3)Audio 1080p 720p
    Format : AC-3
    Format/Info : Audio Coding 3
    Codec ID : A_AC3
    Bit rate : 320 kb/s
    Channel(s) : 6 channels
    Channel positions : Front: L C R, Side: L R, LFE
    Bit depth : 16 bits
    Stream size : 273 MiB (3%)
    Language : English

    [​IMG]
    Birds 1-2.jpg Birds 3-4.jpg Birds 5-6.jpg Birds 7-8.jpg Birds 1-2.jpg Birds 3-4.jpg Birds 9-10.jpg Birds 11-12.jpg Birds 13.-14.jpg Birds 15-16.jpg
    [​IMG]

    The birds 1080p

    Nhấn nút Cảm ơn (dưới chân bài) để thấy link!



    English sub https://www.fshare.vn/file/VUCXDP7KXRSE

    bản 720p

    Nhấn nút Cảm ơn (dưới chân bài) để thấy link!



    Đã có bản 720p phim này ở mục download fshare, bạn nào thích bản 720p cứ chọn tải link Fshare

    Danh sách các phim 1080p mà HLIEU đã post

    HLIEU
     
    Chỉnh sửa cuối: 15/11/18
  2. 3khai

    3khai Member

    Tham gia ngày:
    12/10/14
    Bài viết:
    45
    Đã được cảm ơn:
    93
    Xem phim kinh dị siêu tưởng của A.Hicthcock phải nói quá hay. cám ơn bác nhiều post phim
    ly kỳ như vậy.
    3lhai
     
    chinhto and Mr.Gà like this.
  3. PTBao

    PTBao Active Member

    Tham gia ngày:
    3/8/10
    Bài viết:
    102
    Đã được cảm ơn:
    51
    Phim này đã được xem ở rạp khi còn nhỏ, rất hấp dẫn. Cảm ơn bác HLIEU đã sưu tầm và chia sẻ
     
    Mr.Gà cảm ơn bài này.
  4. dinhhuanx

    dinhhuanx New Member

    Tham gia ngày:
    24/11/17
    Bài viết:
    13
    Đã được cảm ơn:
    6
    Giới tính:
    Nam
    Phim hay, rất đáng xem. Cám ơnbác nhiều
    9inh Huấn
     

Chia sẻ trang này