[Hành Động | Kinh Dị] GirlHouse 2014 1080p BluRay DTS x264-WiKi | RBG - Truy Sát Gái Gọi

Thảo luận trong 'Fshare.vn' bắt đầu bởi chanchan nannan, 20/6/15.

  1. chanchan nannan

    chanchan nannan Well-Known Member

    Tham gia ngày:
    26/5/15
    Bài viết:
    5,718
    Đã được cảm ơn:
    3,434
    Nghề nghiệp:
    Đang thất nhiệp
    Nơi ở:
    Việt Nam
    Girl House 2014 1080p BluRay DTS x264-WiKi
    Truy Sát Gái Gọi
    [Hành Động | Kinh Dị]
    (Ali Cobrin, Adam DiMarco, Slaine)

    Ratings: 5.6/10 from 1,320 users


    [​IMG]


    INFO

    Mã:
    .Plot
    A HALLOWEEN-style slasher for the digital age, it follows a beautiful young college student who, needing money for tuition, moves into a house that streams content to an X-rated website. After a deranged fan hacks in to determine the house‘s location, she finds herself in a terrifying fight for her life.
    TAGLINE...................: Girlhouse
    GENRE.....................: Horror | Thriller
    IMDb RATING...............: 5.6/10 (1,362  votes)
    IMDb LINK.................: http://www.imdb.com/title/tt2577172/
    .Release.Info 
    ENCODER...................: mengbo @ WiKi
    
    
    RELEASE DATE..............: 2015-06-18
    RELEASE SIZE..............: 7.95 GB
    SOURCE....................: 1080p GER BluRay AVC DTS MA 5.1-BDA
    .Media.Info 
    RUNTIME...................: 01:41:08
    VIDEO CODEC...............: x264_L4.1 @ 10.5 Mbps
    RESOLUTION................: 1920x804 (2.40:1)
    FRAME RATE................: 23.976 fps
    AUDIO CODEC...............: English DTS  5.1 @ 1509 Kbps
    CHAPTERS..................: Yes
    .x264.Info
    x264 [info]: profile High, level 4.1 @ pass2
    x264 [info]: frame I:1060  Avg QP:13.48  size:193699
    x264 [info]: frame P:36230 Avg QP:16.55  size: 79849
    x264 [info]: frame B:108195 Avg QP:17.83  size: 44966
    x264 [info]: consecutive B-frames:  5.8%  4.1%  9.7% 13.8% 12.2% 46.1%  3.5%  0.6%  1.0%  0.7%  0.4%  0.6%  1.4%       
    

     
    Chỉnh sửa cuối: 25/7/15
  2. chanchan nannan

    chanchan nannan Well-Known Member

    Tham gia ngày:
    26/5/15
    Bài viết:
    5,718
    Đã được cảm ơn:
    3,434
    Nghề nghiệp:
    Đang thất nhiệp
    Nơi ở:
    Việt Nam
    Ðề: [Hành Động | Kinh Dị] GirlHouse 2014 1080p BluRay DTS x264-WiKi | RBG - Truy Sát Gái Gọi

    Girl House 2014 1080p BluRay DTS x264-RBG
    Truy Sát Gái Gọi
    [Hành Động | Kinh Dị]
    (Ali Cobrin, Adam DiMarco, Slaine)

    Ratings: 5.6/10 from 1,320 users


    [​IMG]

    INFO

    Mã:
    [B][COLOR="#FF0000"]Format profile                           : [email protected]
    Format settings, CABAC                   : Yes
    Format settings, ReFrames                : 4 frames
    Codec ID                                 : V_MPEG4/ISO/AVC
    Duration                                 : 1h 41mn
    Bit rate                                 : 10.9 Mbps
    Nominal bit rate                         : 11.5 Mbps
    Width                                    : 1 920 pixels
    Height                                   : 800 pixels
    Display aspect ratio                     : 2.40:1
    Frame rate mode                          : Constant
    Frame rate                               : 23.976 fps
    Color space                              : YUV
    Chroma subsampling                       : 4:2:0
    Bit depth                                : 8 bits
    Scan type                                : Progressive
    Bits/(Pixel*Frame)                       : 0.297
    Stream size                              : 7.72 GiB (92%)
    Title                                    : Girl.House.2014.1080p.BluRay.x264.DTS-RARBG
    Writing library                          : x264 core 142 r2495 6a301b6
    Encoding settings                        : cabac=1 / ref=4 / deblock=1:-2:-2 / analyse=0x3:0x113 / me=umh / subme=7 / psy=1 / psy_rd=1.00:0.15 / mixed_ref=1 / me_range=16 / chroma_me=1 / trellis=1 / 8x8dct=1 / cqm=0 / deadzone=21,11 / fast_pskip=1 / chroma_qp_offset=-3 / threads=12 / lookahead_threads=3 / sliced_threads=0 / nr=0 / decimate=1 / interlaced=0 / bluray_compat=0 / constrained_intra=0 / bframes=3 / b_pyramid=2 / b_adapt=2 / b_bias=0 / direct=3 / weightb=1 / open_gop=0 / weightp=2 / keyint=250 / keyint_min=25 / scenecut=40 / intra_refresh=0 / rc_lookahead=50 / rc=abr / mbtree=1 / bitrate=11500 / ratetol=1.0 / qcomp=0.60 / qpmin=0 / qpmax=69 / qpstep=4 / vbv_maxrate=31250 / vbv_bufsize=31250 / nal_hrd=none / filler=0 / ip_ratio=1.40 / aq=1:1.00
    Language                                 : English
    Default                                  : Yes
    Forced                                   : No
    
    Audio
    ID                                       : 2
    Format                                   : DTS
    Format/Info                              : Digital Theater Systems
    Mode                                     : 16
    Format settings, Endianness              : Big
    Codec ID                                 : A_DTS
    Duration                                 : 1h 41mn
    Bit rate mode                            : Constant
    Bit rate                                 : 768 Kbps
    Channel(s)                               : 6 channels
    Channel positions                        : Front: L C R, Side: L R, LFE
    Sampling rate                            : 48.0 KHz
    Bit depth                                : 24 bits
    Compression mode                         : Lossy
    Stream size                              : 555 MiB (6%)
    Title                                    : Girl.House.2014.1080p.BluRay.x264.DTS-RARBG
    Language                                 : English
    Default                                  : Yes
    Forced                                   : No                
    

     
    Chỉnh sửa cuối: 25/7/15
  3. chanchan nannan

    chanchan nannan Well-Known Member

    Tham gia ngày:
    26/5/15
    Bài viết:
    5,718
    Đã được cảm ơn:
    3,434
    Nghề nghiệp:
    Đang thất nhiệp
    Nơi ở:
    Việt Nam
    Ðề: [Hành Động | Kinh Dị] GirlHouse 2014 1080p BluRay DTS x264-WiKi | RBG - Truy Sát Gái Gọi

    Girl House 2014 1080p BluRay DTS x264-RBG
    Truy Sát Gái Gọi
    [Hành Động | Kinh Dị]
    (Ali Cobrin, Adam DiMarco, Slaine)

    Ratings: 5.6/10 from 1,320 users


    [​IMG]

    INFO

    Mã:
    [B][COLOR="#FF0000"]Format profile                           : [email protected]
    Format settings, CABAC                   : Yes
    Format settings, ReFrames                : 4 frames
    Codec ID                                 : V_MPEG4/ISO/AVC
    Duration                                 : 1h 41mn
    Bit rate                                 : 10.9 Mbps
    Nominal bit rate                         : 11.5 Mbps
    Width                                    : 1 920 pixels
    Height                                   : 800 pixels
    Display aspect ratio                     : 2.40:1
    Frame rate mode                          : Constant
    Frame rate                               : 23.976 fps
    Color space                              : YUV
    Chroma subsampling                       : 4:2:0
    Bit depth                                : 8 bits
    Scan type                                : Progressive
    Bits/(Pixel*Frame)                       : 0.297
    Stream size                              : 7.72 GiB (92%)
    Title                                    : Girl.House.2014.1080p.BluRay.x264.DTS-RARBG
    Writing library                          : x264 core 142 r2495 6a301b6
    Encoding settings                        : cabac=1 / ref=4 / deblock=1:-2:-2 / analyse=0x3:0x113 / me=umh / subme=7 / psy=1 / psy_rd=1.00:0.15 / mixed_ref=1 / me_range=16 / chroma_me=1 / trellis=1 / 8x8dct=1 / cqm=0 / deadzone=21,11 / fast_pskip=1 / chroma_qp_offset=-3 / threads=12 / lookahead_threads=3 / sliced_threads=0 / nr=0 / decimate=1 / interlaced=0 / bluray_compat=0 / constrained_intra=0 / bframes=3 / b_pyramid=2 / b_adapt=2 / b_bias=0 / direct=3 / weightb=1 / open_gop=0 / weightp=2 / keyint=250 / keyint_min=25 / scenecut=40 / intra_refresh=0 / rc_lookahead=50 / rc=abr / mbtree=1 / bitrate=11500 / ratetol=1.0 / qcomp=0.60 / qpmin=0 / qpmax=69 / qpstep=4 / vbv_maxrate=31250 / vbv_bufsize=31250 / nal_hrd=none / filler=0 / ip_ratio=1.40 / aq=1:1.00
    Language                                 : English
    Default                                  : Yes
    Forced                                   : No
    
    Audio
    ID                                       : 2
    Format                                   : DTS
    Format/Info                              : Digital Theater Systems
    Mode                                     : 16
    Format settings, Endianness              : Big
    Codec ID                                 : A_DTS
    Duration                                 : 1h 41mn
    Bit rate mode                            : Constant
    Bit rate                                 : 768 Kbps
    Channel(s)                               : 6 channels
    Channel positions                        : Front: L C R, Side: L R, LFE
    Sampling rate                            : 48.0 KHz
    Bit depth                                : 24 bits
    Compression mode                         : Lossy
    Stream size                              : 555 MiB (6%)
    Title                                    : Girl.House.2014.1080p.BluRay.x264.DTS-RARBG
    Language                                 : English
    Default                                  : Yes
    Forced                                   : No                
    

     
  4. chanchan nannan

    chanchan nannan Well-Known Member

    Tham gia ngày:
    26/5/15
    Bài viết:
    5,718
    Đã được cảm ơn:
    3,434
    Nghề nghiệp:
    Đang thất nhiệp
    Nơi ở:
    Việt Nam
  5. bomnet87

    bomnet87 New Member

    Tham gia ngày:
    16/7/14
    Bài viết:
    22
    Đã được cảm ơn:
    3
    Ðề: [Hành Động | Kinh Dị] GirlHouse 2014 1080p BluRay DTS x264-WiKi | RBG - Truy Sát Gái Gọi

    Bác nào xem rồi cho em cái nhận xét :D
     
  6. chanchan nannan

    chanchan nannan Well-Known Member

    Tham gia ngày:
    26/5/15
    Bài viết:
    5,718
    Đã được cảm ơn:
    3,434
    Nghề nghiệp:
    Đang thất nhiệp
    Nơi ở:
    Việt Nam
    Ðề: [Hành Động | Kinh Dị] GirlHouse 2014 1080p BluRay DTS x264-WiKi | RBG - Truy Sát Gái Gọi

    phim hay (theo cá nhân em :D
     
  7. chanchan nannan

    chanchan nannan Well-Known Member

    Tham gia ngày:
    26/5/15
    Bài viết:
    5,718
    Đã được cảm ơn:
    3,434
    Nghề nghiệp:
    Đang thất nhiệp
    Nơi ở:
    Việt Nam
    Chỉnh sửa cuối: 4/8/15
  8. chanchan nannan

    chanchan nannan Well-Known Member

    Tham gia ngày:
    26/5/15
    Bài viết:
    5,718
    Đã được cảm ơn:
    3,434
    Nghề nghiệp:
    Đang thất nhiệp
    Nơi ở:
    Việt Nam
  9. chanchan nannan

    chanchan nannan Well-Known Member

    Tham gia ngày:
    26/5/15
    Bài viết:
    5,718
    Đã được cảm ơn:
    3,434
    Nghề nghiệp:
    Đang thất nhiệp
    Nơi ở:
    Việt Nam

Chia sẻ trang này