[Hành Động] Infinite 2021 720p BluRay x264 DTS - Vô Hạn

Thảo luận trong 'Fshare.vn' bắt đầu bởi xemaydinh, 21/1/22.

  1. xemaydinh

    xemaydinh Tem

    Tham gia ngày:
    3/7/10
    Bài viết:
    35,890
    Đã được cảm ơn:
    188,204
    Infinite 2021 720p BluRay x264 DTS-FGT

    Vô Hạn
    [​IMG]


    Phim xoay quanh câu chuyện của một chàng trai trẻ đang gặp rắc rối. Anh ta bị ám ảnh bởi những ký ức từ hai kiếp trước đây, để rồi anh gặp được một hội kín đã được thành lập từ hàng thế kỷ qua. Chàng trai trẻ lựa chọn trở thành một phần của họ, bắt đầu câu chuyện phiêu lưu mới.



    Video
    ID : 1
    Format : AVC
    Format/Info : Advanced Video Codec
    Format profile : [email protected]
    Format settings : CABAC / 4 Ref Frames
    Format settings, CABAC : Yes
    Format settings, Reference frames : 4 frames
    Codec ID : V_MPEG4/ISO/AVC
    Duration : 1 h 46 min
    Bit rate : 5 500 kb/s
    Width : 1 280 pixels
    Height : 536 pixels
    Display aspect ratio : 2.40:1
    Frame rate mode : Constant
    Frame rate : 23.976 (24000/1001) FPS
    Color space : YUV
    Chroma subsampling : 4:2:0
    Bit depth : 8 bits
    Scan type : Progressive
    Bits/(Pixel*Frame) : 0.334
    Stream size : 4.09 GiB (78%)
    Writing library : x264 core 148 r2748 97eaef2
    Encoding settings : cabac=1 / ref=4 / deblock=1:-2:-2 / analyse=0x3:0x113 / me=umh / subme=9 / psy=1 / psy_rd=1.00:0.15 / mixed_ref=1 / me_range=16 / chroma_me=1 / trellis=2 / 8x8dct=1 / cqm=0 / deadzone=21,11 / fast_pskip=1 / chroma_qp_offset=-3 / threads=72 / lookahead_threads=3 / sliced_threads=0 / nr=0 / decimate=1 / interlaced=0 / bluray_compat=0 / constrained_intra=0 / bframes=3 / b_pyramid=2 / b_adapt=1 / b_bias=0 / direct=3 / weightb=1 / open_gop=0 / weightp=2 / keyint=250 / keyint_min=25 / scenecut=40 / intra_refresh=0 / rc_lookahead=50 / rc=2pass / mbtree=1 / bitrate=5500 / ratetol=1.0 / qcomp=0.60 / qpmin=0 / qpmax=69 / qpstep=4 / cplxblur=20.0 / qblur=0.5 / vbv_maxrate=31250 / vbv_bufsize=31250 / nal_hrd=none / filler=0 / ip_ratio=1.40 / aq=1:1.00
    Default : Yes
    Forced : No

    Audio
    ID : 2
    Format : DTS
    Format/Info : Digital Theater Systems
    Codec ID : A_DTS
    Duration : 1 h 46 min
    Bit rate mode : Constant
    Bit rate : 1 509 kb/s
    Channel(s) : 6 channels
    Channel layout : C L R Ls Rs LFE
    Sampling rate : 48.0 kHz
    Frame rate : 93.750 FPS (512 SPF)
    Bit depth : 24 bits
    Compression mode : Lossy
    Stream size : 1.12 GiB (22%)
    Language : English
    Default : Yes
    Forced : No

    Text
    ID : 3
    Format : UTF-8
    Codec ID : S_TEXT/UTF8
    Codec ID/Info : UTF-8 Plain Text
    Duration : 1 h 36 min
    Bit rate : 42 b/s
    Count of elements : 940
    Stream size : 30.0 KiB (0%)
    Language : English
    Default : Yes
    Forced : No

    Menu
    00:00:00.000 : en:Chapter 01
    00:07:49.094 : en:Chapter 02
    00:12:45.098 : en:Chapter 03
    00:18:58.554 : en:Chapter 04
    00:25:51.633 : en:Chapter 05
    00:32:25.402 : en:Chapter 06
    00:38:25.136 : en:Chapter 07
    00:46:41.007 : en:Chapter 08
    00:54:22.801 : en:Chapter 09
    01:02:59.275 : en:Chapter 10
    01:11:01.007 : en:Chapter 11
    01:19:41.443 : en:Chapter 12
    01:28:27.135 : en:Chapter 13
    01:37:44.692 : en:Chapter 14




    [​IMG] [​IMG]
    [​IMG] [​IMG]
    [​IMG] [​IMG]




    Fshare ~ 5.21GB

    Nhấn nút Cảm ơn (dưới chân bài) để thấy link!


    4Share

    Nhấn nút Cảm ơn (dưới chân bài) để thấy link!


    Sub Việt

    https://subscene.com/subtitles/infinite


    Tổng hợp phim 18+
    Nhấn nút Cảm ơn (dưới chân bài) để thấy link!

    Tổng hợp phim full Menu (Thuyết minh+Sub Việt) bluray (nethd.org)
    Nhấn nút Cảm ơn (dưới chân bài) để thấy link!

    Tổng hợp phim bộ Lồng tiếng, thuyết minh, sub việt
    Nhấn nút Cảm ơn (dưới chân bài) để thấy link!

    Tổng hợp phim hàng ngày
    Nhấn nút Cảm ơn (dưới chân bài) để thấy link!

    Tổng hợp phim bluray Remux ISO 4K








    mhd https://hdvietnam.com/threads/hanh-...0p-1080p-bluray-dd5-1x264-xmd-vo-han.1755281/

    720p https://hdvietnam.com/threads/hanh-dong-infinite-2021-720p-bluray-x264-dts-vo-han.1755277/

    1080p https://hdvietnam.com/threads/hanh-...p-bluray-atmos-truehd7-1-x264-vo-han.1755079/

    4K HDR https://hdvietnam.com/threads/4k-hd...0bit-hdr-dts-hd-ma-truehd-7-1-vo-han.1758994/

    4K HDR_Thuyết minh_Sub Việt https://hdvietnam.com/threads/hanh-...7-1-x264-vo-han-t-minh.1755672/#post-10761598

    4K SDR https://hdvietnam.com/threads/4k-hd...d-ma-truehd-7-1-vo-han.1758994/#post-10761755

    Thuyết minh https://hdvietnam.com/threads/hanh-...y-atmos-truehd7-1-x264-vo-han-t-minh.1755672/

    Remux Thuyết minh _sub việt https://hdvietnam.com/threads/hanh-...y-atmos-truehd7-1-x264-vo-han-t-minh.1755672/

    Remux https://hdvietnam.com/threads/hanh-...ts-hd-ma-truehd-7-1-atmos-fgt-vo-han.1755280/

    Remux 4K https://hdvietnam.com/threads/remux...-dovi-truehd-atmos-7-1-playbd-vo-han.1758832/

    ISO https://hdvietnam.com/threads/iso-h...-ray-avc-truehd-atmos-7-1-bhd-vo-han.1755674/

    ISO 4K https://hdvietnam.com/threads/hanh-...y-2160p-hevc-truehd-atmos-7-1-vo-han.1760947/
     
    Chỉnh sửa cuối: 22/2/22
    cmduong_vn, ntdatdtp, cook9y and 52 others like this.
  2. xemaydinh

    xemaydinh Tem

    Tham gia ngày:
    3/7/10
    Bài viết:
    35,890
    Đã được cảm ơn:
    188,204
    Infinite 2021 ViE 720p BluRay x264 DTS-FGT

    Vô Hạn
    [​IMG]


    Phim xoay quanh câu chuyện của một chàng trai trẻ đang gặp rắc rối. Anh ta bị ám ảnh bởi những ký ức từ hai kiếp trước đây, để rồi anh gặp được một hội kín đã được thành lập từ hàng thế kỷ qua. Chàng trai trẻ lựa chọn trở thành một phần của họ, bắt đầu câu chuyện phiêu lưu mới.


    Video
    ID : 1
    Format : AVC
    Format/Info : Advanced Video Codec
    Format profile : [email protected]
    Format settings : CABAC / 4 Ref Frames
    Format settings, CABAC : Yes
    Format settings, Reference frames : 4 frames
    Codec ID : V_MPEG4/ISO/AVC
    Duration : 1 h 46 min
    Bit rate : 5 500 kb/s
    Width : 1 280 pixels
    Height : 536 pixels
    Display aspect ratio : 2.40:1
    Frame rate mode : Constant
    Frame rate : 23.976 (24000/1001) FPS
    Color space : YUV
    Chroma subsampling : 4:2:0
    Bit depth : 8 bits
    Scan type : Progressive
    Bits/(Pixel*Frame) : 0.334
    Stream size : 4.09 GiB (78%)
    Writing library : x264 core 148 r2748 97eaef2
    Encoding settings : cabac=1 / ref=4 / deblock=1:-2:-2 / analyse=0x3:0x113 / me=umh / subme=9 / psy=1 / psy_rd=1.00:0.15 / mixed_ref=1 / me_range=16 / chroma_me=1 / trellis=2 / 8x8dct=1 / cqm=0 / deadzone=21,11 / fast_pskip=1 / chroma_qp_offset=-3 / threads=72 / lookahead_threads=3 / sliced_threads=0 / nr=0 / decimate=1 / interlaced=0 / bluray_compat=0 / constrained_intra=0 / bframes=3 / b_pyramid=2 / b_adapt=1 / b_bias=0 / direct=3 / weightb=1 / open_gop=0 / weightp=2 / keyint=250 / keyint_min=25 / scenecut=40 / intra_refresh=0 / rc_lookahead=50 / rc=2pass / mbtree=1 / bitrate=5500 / ratetol=1.0 / qcomp=0.60 / qpmin=0 / qpmax=69 / qpstep=4 / cplxblur=20.0 / qblur=0.5 / vbv_maxrate=31250 / vbv_bufsize=31250 / nal_hrd=none / filler=0 / ip_ratio=1.40 / aq=1:1.00
    Default : Yes
    Forced : No

    Audio
    ID : 2
    Format : DTS
    Format/Info : Digital Theater Systems
    Codec ID : A_DTS
    Duration : 1 h 46 min
    Bit rate mode : Constant
    Bit rate : 1 509 kb/s
    Channel(s) : 6 channels
    Channel layout : C L R Ls Rs LFE
    Sampling rate : 48.0 kHz
    Frame rate : 93.750 FPS (512 SPF)
    Bit depth : 24 bits
    Compression mode : Lossy
    Stream size : 1.12 GiB (22%)
    Language : English
    Default : Yes
    Forced : No


    AUDIO #3......: Vietnamese | AAC | 2 channels | 128 kb/s | 48.0 kHz

    Text
    ID : 3
    Format : UTF-8
    Codec ID : S_TEXT/UTF8
    Codec ID/Info : UTF-8 Plain Text
    Duration : 1 h 36 min
    Bit rate : 42 b/s
    Count of elements : 940
    Stream size : 30.0 KiB (0%)
    Language : English
    Default : Yes
    Forced : No

    Menu
    00:00:00.000 : en:Chapter 01
    00:07:49.094 : en:Chapter 02
    00:12:45.098 : en:Chapter 03
    00:18:58.554 : en:Chapter 04
    00:25:51.633 : en:Chapter 05
    00:32:25.402 : en:Chapter 06
    00:38:25.136 : en:Chapter 07
    00:46:41.007 : en:Chapter 08
    00:54:22.801 : en:Chapter 09
    01:02:59.275 : en:Chapter 10
    01:11:01.007 : en:Chapter 11
    01:19:41.443 : en:Chapter 12
    01:28:27.135 : en:Chapter 13
    01:37:44.692 : en:Chapter 14




    [​IMG] [​IMG]
    [​IMG] [​IMG]
    [​IMG] [​IMG]




    Fshare ~ 5.31GB

    Nhấn nút Cảm ơn (dưới chân bài) để thấy link!


    4Share

    Nhấn nút Cảm ơn (dưới chân bài) để thấy link!


    Sub Việt

    https://subscene.com/subtitles/infinite


    Tổng hợp phim 18+

    Tổng hợp phim full Menu (Thuyết minh+Sub Việt) bluray (nethd.org)

    Tổng hợp phim bộ Lồng tiếng, thuyết minh, sub việt

    Tổng hợp phim bluray Remux ISO 4K






    mhd https://hdvietnam.com/threads/hanh-...0p-1080p-bluray-dd5-1x264-xmd-vo-han.1755281/

    720p https://hdvietnam.com/threads/hanh-dong-infinite-2021-720p-bluray-x264-dts-vo-han.1755277/

    1080p https://hdvietnam.com/threads/hanh-...p-bluray-atmos-truehd7-1-x264-vo-han.1755079/

    Thuyết minh

    Remux https://hdvietnam.com/threads/hanh-...ts-hd-ma-truehd-7-1-atmos-fgt-vo-han.1755280/

    ISO
     
  3. xemaydinh

    xemaydinh Tem

    Tham gia ngày:
    3/7/10
    Bài viết:
    35,890
    Đã được cảm ơn:
    188,204
    Infinite 2021 Blu-ray 720p x264 AC3-BtsHD
    Vô Hạn
    [​IMG]


    Phim xoay quanh câu chuyện của một chàng trai trẻ đang gặp rắc rối. Anh ta bị ám ảnh bởi những ký ức từ hai kiếp trước đây, để rồi anh gặp được một hội kín đã được thành lập từ hàng thế kỷ qua. Chàng trai trẻ lựa chọn trở thành một phần của họ, bắt đầu câu chuyện phiêu lưu mới.



    ******************MEDiA iNFO**************************
    [无限]Infinite.2021.Blu-ray.720p.x264.AC3-BtsHD
    RELEASE DATE....: 2022.01.26
    SOURCE .........: Infinite 2021 1080p Blu-ray AVC Atmos TrueHD [email protected](thanks)
    ViDEO BiTRATE...: x264 [email protected] 4000 Kbps
    FRAME RATE......: 23.976fps
    AUDiO ..........: AC3 640 kb/s
    RUNTiME.........: 1 h 46 min
    RESOLUTiON......: 1280 X 720
    FilE SiZE.......: 3.46G
    ENCODER.........: BTSCHOOL



    [​IMG] [​IMG]
    [​IMG] [​IMG]
    [​IMG] [​IMG]




    Fshare ~ 3.47GB

    Nhấn nút Cảm ơn (dưới chân bài) để thấy link!


    4Share

    Nhấn nút Cảm ơn (dưới chân bài) để thấy link!


    Sub Việt

    https://subscene.com/subtitles/infinite


    Tổng hợp phim 18+

    Tổng hợp phim full Menu (Thuyết minh+Sub Việt) bluray (nethd.org)

    Tổng hợp phim bộ Lồng tiếng, thuyết minh, sub việt

    Tổng hợp phim bluray Remux ISO 4K






    mhd https://hdvietnam.com/threads/hanh-...0p-1080p-bluray-dd5-1x264-xmd-vo-han.1755281/

    720p https://hdvietnam.com/threads/hanh-dong-infinite-2021-720p-bluray-x264-dts-vo-han.1755277/

    1080p https://hdvietnam.com/threads/hanh-...p-bluray-atmos-truehd7-1-x264-vo-han.1755079/

    Thuyết minh

    Remux https://hdvietnam.com/threads/hanh-...ts-hd-ma-truehd-7-1-atmos-fgt-vo-han.1755280/

    ISO
     
    haiphan68 and gauto988 like this.
  4. xemaydinh

    xemaydinh Tem

    Tham gia ngày:
    3/7/10
    Bài viết:
    35,890
    Đã được cảm ơn:
    188,204
    Infinite.2021.720p.BluRay.x264.DTS-FGT.mkv

    4Share

    Nhấn nút Cảm ơn (dưới chân bài) để thấy link!
     
  5. xemaydinh

    xemaydinh Tem

    Tham gia ngày:
    3/7/10
    Bài viết:
    35,890
    Đã được cảm ơn:
    188,204
    Infinite.2021.Blu-ray.720p.x264.AC3-BtsHD.mkv
    4Share

    Nhấn nút Cảm ơn (dưới chân bài) để thấy link!
     

Chia sẻ trang này