[Hành Động] Hard Hit 2021 KOREAN 720p BluRay x264 DTS-HD MA 5.1 - Án tử trên xe

Thảo luận trong 'Fshare.vn' bắt đầu bởi xemaydinh, 21/1/22.

  1. xemaydinh

    xemaydinh Tem

    Tham gia ngày:
    3/7/10
    Bài viết:
    35,885
    Đã được cảm ơn:
    188,186
    Hard.Hit.2021.KOREAN.720p.BluRay.x264.DTS-FGT



    Án tử trên xe
    [​IMG]



    Sung Gyu là một giám đốc ngân hàng đang gặp tình thế nguy hiểm khi phát hiện trên xe mình có quả bom được cài sẵn. Chỉ cần dừng xe, cả ông và con gái của mình đều sẽ chết. Liệu phải làm sao để bảo toàn mạng sống?



    General
    Unique ID : 313804466569112671517738176524700462286 (0xEC148AB8F632B6E5252523CD8AA1ACCE)
    Complete name : C:\Hard.Hit.2021.KOREAN.720p.BluRay.x264.DTS-FGT\Hard.Hit.2021.KOREAN.720p.BluRay.x264.DTS-FGT.mkv
    Format : Matroska
    Format version : Version 4
    File size : 5.62 GiB
    Duration : 1 h 34 min
    Overall bit rate : 8 522 kb/s
    Movie name : Hard.Hit.2021.KOREAN.720p.BluRay.x264.DTS-FGT
    Encoded date : UTC 2022-01-21 11:35:41
    Writing application : mkvmerge v64.0.0 ('Willows') 64-bit
    Writing library : libebml v1.4.2 + libmatroska v1.6.4

    Video
    ID : 1
    Format : AVC
    Format/Info : Advanced Video Codec
    Format profile : [email protected]
    Format settings : CABAC / 4 Ref Frames
    Format settings, CABAC : Yes
    Format settings, Reference frames : 4 frames
    Codec ID : V_MPEG4/ISO/AVC
    Duration : 1 h 34 min
    Bit rate : 5 500 kb/s
    Width : 1 280 pixels
    Height : 536 pixels
    Display aspect ratio : 2.40:1
    Frame rate mode : Constant
    Frame rate : 23.976 (24000/1001) FPS
    Color space : YUV
    Chroma subsampling : 4:2:0
    Bit depth : 8 bits
    Scan type : Progressive
    Bits/(Pixel*Frame) : 0.334
    Stream size : 3.63 GiB (65%)
    Writing library : x264 core 148 r2748 97eaef2
    Encoding settings : cabac=1 / ref=4 / deblock=1:-2:-2 / analyse=0x3:0x113 / me=umh / subme=9 / psy=1 / psy_rd=1.00:0.15 / mixed_ref=1 / me_range=16 / chroma_me=1 / trellis=2 / 8x8dct=1 / cqm=0 / deadzone=21,11 / fast_pskip=1 / chroma_qp_offset=-3 / threads=72 / lookahead_threads=3 / sliced_threads=0 / nr=0 / decimate=1 / interlaced=0 / bluray_compat=0 / constrained_intra=0 / bframes=3 / b_pyramid=2 / b_adapt=1 / b_bias=0 / direct=3 / weightb=1 / open_gop=0 / weightp=2 / keyint=250 / keyint_min=25 / scenecut=40 / intra_refresh=0 / rc_lookahead=50 / rc=2pass / mbtree=1 / bitrate=5500 / ratetol=1.0 / qcomp=0.60 / qpmin=0 / qpmax=69 / qpstep=4 / cplxblur=20.0 / qblur=0.5 / vbv_maxrate=31250 / vbv_bufsize=31250 / nal_hrd=none / filler=0 / ip_ratio=1.40 / aq=1:1.00
    Language : English
    Default : Yes
    Forced : No

    Audio #1
    ID : 2
    ID in the original source medium : 4353 (0x1101)
    Format : DTS
    Format/Info : Digital Theater Systems
    Codec ID : A_DTS
    Duration : 1 h 34 min
    Bit rate mode : Constant
    Bit rate : 1 509 kb/s
    Channel(s) : 6 channels
    Channel layout : C L R Ls Rs LFE
    Sampling rate : 48.0 kHz
    Frame rate : 93.750 FPS (512 SPF)
    Bit depth : 24 bits
    Compression mode : Lossy
    Stream size : 1 019 MiB (18%)
    Title : DTS 5.1
    Language : Korean
    Default : No
    Forced : No
    Original source medium : Blu-ray

    Audio #2
    ID : 3
    ID in the original source medium : 4354 (0x1102)
    Format : DTS
    Format/Info : Digital Theater Systems
    Codec ID : A_DTS
    Duration : 1 h 34 min
    Bit rate mode : Constant
    Bit rate : 1 509 kb/s
    Channel(s) : 6 channels
    Channel layout : C L R Ls Rs LFE
    Sampling rate : 48.0 kHz
    Frame rate : 93.750 FPS (512 SPF)
    Bit depth : 24 bits
    Compression mode : Lossy
    Stream size : 1 019 MiB (18%)
    Title : DTS 5.1
    Language : English
    Default : No
    Forced : No
    Original source medium : Blu-ray

    Text #1
    ID : 4
    Format : UTF-8
    Codec ID : S_TEXT/UTF8
    Codec ID/Info : UTF-8 Plain Text
    Duration : 1 h 27 min
    Bit rate : 40 b/s
    Count of elements : 953
    Stream size : 26.0 KiB (0%)
    Language : English
    Default : Yes
    Forced : No

    Text #2
    ID : 5
    Format : UTF-8
    Codec ID : S_TEXT/UTF8
    Codec ID/Info : UTF-8 Plain Text
    Duration : 1 h 31 min
    Bit rate : 49 b/s
    Count of elements : 1258
    Stream size : 33.4 KiB (0%)
    Title : SDH
    Language : English
    Default : No
    Forced : No

    Text #3
    ID : 6
    Format : UTF-8
    Codec ID : S_TEXT/UTF8
    Codec ID/Info : UTF-8 Plain Text
    Duration : 1 h 27 min
    Bit rate : 46 b/s
    Count of elements : 1118
    Stream size : 30.1 KiB (0%)
    Language : English
    Default : No
    Forced : No

    Text #4
    ID : 7
    Format : UTF-8
    Codec ID : S_TEXT/UTF8
    Codec ID/Info : UTF-8 Plain Text
    Duration : 1 h 15 min
    Bit rate : 0 b/s
    Count of elements : 17
    Stream size : 474 Bytes (0%)
    Title : FORCED
    Language : English
    Default : No
    Forced : Yes

    Menu
    00:00:00.000 : en:Chapter 01
    00:04:59.716 : en:Chapter 02
    00:14:17.106 : en:Chapter 03
    00:19:50.856 : en:Chapter 04
    00:25:33.323 : en:Chapter 05
    00:29:39.444 : en:Chapter 06
    00:37:16.984 : en:Chapter 07
    00:43:45.956 : en:Chapter 08
    00:50:43.623 : en:Chapter 09
    00:55:30.493 : en:Chapter 10
    01:01:05.703 : en:Chapter 11
    01:08:08.334 : en:Chapter 12
    01:12:58.207 : en:Chapter 13
    01:18:13.438 : en:Chapter 14
    01:23:39.305 : en:Chapter 15
    01:29:51.427 : en:Chapter 16



    [​IMG] [​IMG]
    [​IMG] [​IMG]
    [​IMG] [​IMG]





    Fshare ~ 5.61GB

    Nhấn nút Cảm ơn (dưới chân bài) để thấy link!


    4Share

    Nhấn nút Cảm ơn (dưới chân bài) để thấy link!


    Sub Việt

    https://subscene.com/subtitles/hard-hit-balsinjehan



    Tổng hợp phim 18+
    Nhấn nút Cảm ơn (dưới chân bài) để thấy link!

    Tổng hợp phim full Menu (Thuyết minh+Sub Việt) bluray (nethd.org)
    Nhấn nút Cảm ơn (dưới chân bài) để thấy link!

    Tổng hợp phim bộ Lồng tiếng, thuyết minh, sub việt
    Nhấn nút Cảm ơn (dưới chân bài) để thấy link!

    Tổng hợp phim hàng ngày
    Nhấn nút Cảm ơn (dưới chân bài) để thấy link!






    mhd

    720p https://hdvietnam.com/threads/hanh-...ray-x264-dts-hd-ma-5-1-an-tu-tren-xe.1755378/

    1080p https://hdvietnam.com/threads/hanh-...ray-x264-dts-hd-ma-5-1-an-tu-tren-xe.1755377/

    Thuyết minh

    Remux https://hdvietnam.com/threads/hanh-...emux-avc-dts-hd-ma-5-1-an-tu-tren-xe.1755273/

    ISO https://hdvietnam.com/threads/iso-h...ts-hd-ma-5-1-untouched-an-tu-tren-xe.1755272/
     
    Chỉnh sửa cuối: 19/2/22
    madcar, misaki, minhhaiaa1 and 61 others like this.
  2. xemaydinh

    xemaydinh Tem

    Tham gia ngày:
    3/7/10
    Bài viết:
    35,885
    Đã được cảm ơn:
    188,186
    Hard Hit 2021 720p BluRay x264-WiKi



    Án tử trên xe
    [​IMG]



    Sung Gyu là một giám đốc ngân hàng đang gặp tình thế nguy hiểm khi phát hiện trên xe mình có quả bom được cài sẵn. Chỉ cần dừng xe, cả ông và con gái của mình đều sẽ chết. Liệu phải làm sao để bảo toàn mạng sống?


    .Release.Info
    ENCODER...................: dong1010
    RELEASE DATE..............: 2022-01-24
    RELEASE SIZE..............: 4.47 GiB
    SOURCE....................: Blu-ray AVC DTS-HD MA 5.1-UNTOUCHED

    .Media.Info
    RUNTIME...................: 1h:34m:22s
    VIDEO CODEC...............: x264: 2pass-L4.1 @ 6000 Kbps
    RESOLUTION................: 1280x536 (2.40:1)
    FRAME RATE................: 23.976 fps
    AUDiO CODEC...............: Korean DD5.1 @ 640 Kbps
    SUBTiTLES.................: S_TEXT/ASS(chs)/(cht)

    .x264.Info
    x264 [info]: profile High, level 4.1
    x264 [info]: frame I:1193 Avg QP:15.78 size:114506
    x264 [info]: frame P:28889 Avg QP:18.55 size: 52538
    x264 [info]: frame B:105673 Avg QP:20.39 size: 24484
    x264 [info]: consecutive B-frames: 2.6% 2.7% 7.8% 16.7% 14.9% 36.4% 8.8% 3.3% 6.9%


    [​IMG] [​IMG]
    [​IMG] [​IMG]
    [​IMG] [​IMG]





    Fshare ~ 4.47GB

    Nhấn nút Cảm ơn (dưới chân bài) để thấy link!


    4Share

    Nhấn nút Cảm ơn (dưới chân bài) để thấy link!


    Sub Việt

    https://subscene.com/subtitles/hard-hit-balsinjehan



    Tổng hợp phim 18+

    Tổng hợp phim full Menu (Thuyết minh+Sub Việt) bluray (nethd.org)

    Tổng hợp phim bộ Lồng tiếng, thuyết minh, sub việt

    Tổng hợp phim bluray Remux ISO 4K




    mhd

    720p https://hdvietnam.com/threads/hanh-...ray-x264-dts-hd-ma-5-1-an-tu-tren-xe.1755378/

    1080p https://hdvietnam.com/threads/hanh-...ray-x264-dts-hd-ma-5-1-an-tu-tren-xe.1755377/

    Thuyết minh

    Remux https://hdvietnam.com/threads/hanh-...emux-avc-dts-hd-ma-5-1-an-tu-tren-xe.1755273/

    ISO https://hdvietnam.com/threads/iso-h...ts-hd-ma-5-1-untouched-an-tu-tren-xe.1755272/
     
  3. bokinhvan113304

    bokinhvan113304 Well-Known Member

    Tham gia ngày:
    17/11/14
    Bài viết:
    394
    Đã được cảm ơn:
    275
    có bản thuyết minh k bác, thank
     
    xemaydinh cảm ơn bài này.
  4. xemaydinh

    xemaydinh Tem

    Tham gia ngày:
    3/7/10
    Bài viết:
    35,885
    Đã được cảm ơn:
    188,186
    hiện giờ chưa có bác
     
  5. xemaydinh

    xemaydinh Tem

    Tham gia ngày:
    3/7/10
    Bài viết:
    35,885
    Đã được cảm ơn:
    188,186
    Hard.Hit.2021.KOREAN.720p.BluRay.x264.DTS-FGT.mkv

    4Share

    Nhấn nút Cảm ơn (dưới chân bài) để thấy link!
     
    binhnv143 cảm ơn bài này.
  6. xemaydinh

    xemaydinh Tem

    Tham gia ngày:
    3/7/10
    Bài viết:
    35,885
    Đã được cảm ơn:
    188,186
    Hard Hit 2021 720p BluRay x264-WiKi


    4Share

    Nhấn nút Cảm ơn (dưới chân bài) để thấy link!
     

Chia sẻ trang này