[Hành Động] Hard Hit 2021 KOREAN 1080p BluRay x264 DTS-HD MA 5.1 - Án tử trên xe

Thảo luận trong 'Fshare.vn' bắt đầu bởi xemaydinh, 21/1/22.

  1. xemaydinh

    xemaydinh Tem

    Tham gia ngày:
    3/7/10
    Bài viết:
    35,934
    Đã được cảm ơn:
    188,921
    Hard Hit 2021 1080p BluRay x264 DTS-WiKi

    Án tử trên xe
    [​IMG]



    Sung Gyu là một giám đốc ngân hàng đang gặp tình thế nguy hiểm khi phát hiện trên xe mình có quả bom được cài sẵn. Chỉ cần dừng xe, cả ông và con gái của mình đều sẽ chết. Liệu phải làm sao để bảo toàn mạng sống?



    .Release.Info
    ENCODER...................: dong1010
    RELEASE DATE..............: 2022-01-25
    RELEASE SIZE..............: 12.1 GiB
    SOURCE....................: Blu-ray AVC DTS-HD MA 5.1-UNTOUCHED

    .Media.Info
    RUNTIME...................: 1h:34m:22s
    VIDEO CODEC...............: x264: 2pass-L4.1 @ 16.8 Mbps
    RESOLUTION................: 1920x804 (2.40:1)
    FRAME RATE................: 23.976 fps
    AUDiO CODEC...............: Korean DTS @ 1.5 Mbps
    SUBTiTLES.................: S_TEXT/ASS(chs)/(cht)

    .x264.Info
    x264 [info]: profile High, level 4.1
    x264 [info]: frame I:1006 Avg QP:16.23 size:223303
    x264 [info]: frame P:29219 Avg QP:18.62 size:128905
    x264 [info]: frame B:105530 Avg QP:20.54 size: 74797
    x264 [info]: consecutive B-frames: 2.7% 3.6% 6.9% 15.4% 14.5% 37.2% 8.2% 4.5% 7.0%


    [​IMG] [​IMG]
    [​IMG] [​IMG]
    [​IMG] [​IMG]





    Fshare ~ 12.12GB

    Nhấn nút Cảm ơn (dưới chân bài) để thấy link!


    4Share

    Nhấn nút Cảm ơn (dưới chân bài) để thấy link!


    Sub Việt

    https://subscene.com/subtitles/hard-hit-balsinjehan



    Tổng hợp phim 18+
    Nhấn nút Cảm ơn (dưới chân bài) để thấy link!

    Tổng hợp phim full Menu (Thuyết minh+Sub Việt) bluray (nethd.org)
    Nhấn nút Cảm ơn (dưới chân bài) để thấy link!

    Tổng hợp phim bộ Lồng tiếng, thuyết minh, sub việt
    Nhấn nút Cảm ơn (dưới chân bài) để thấy link!

    Tổng hợp phim hàng ngày
    Nhấn nút Cảm ơn (dưới chân bài) để thấy link!

    Tổng hợp phim bluray Remux ISO 4K





    mhd https://hdvietnam.com/threads/hanh-...p-bluray-dd5-1x264-xmd-an-tu-tren-xe.1755570/

    720p https://hdvietnam.com/threads/hanh-...ray-x264-dts-hd-ma-5-1-an-tu-tren-xe.1755378/

    1080p https://hdvietnam.com/threads/hanh-...ray-x264-dts-hd-ma-5-1-an-tu-tren-xe.1755377/

    Thuyết minh

    Remux https://hdvietnam.com/threads/hanh-...emux-avc-dts-hd-ma-5-1-an-tu-tren-xe.1755273/

    ISO https://hdvietnam.com/threads/iso-h...ts-hd-ma-5-1-untouched-an-tu-tren-xe.1755272/
     
    Chỉnh sửa cuối: 20/2/22
  2. xemaydinh

    xemaydinh Tem

    Tham gia ngày:
    3/7/10
    Bài viết:
    35,934
    Đã được cảm ơn:
    188,921
    Hard Hit 2021 KOREAN 1080p BluRay x264 DTS-HD MA 5.1-FGT



    Án tử trên xe
    [​IMG]



    Sung Gyu là một giám đốc ngân hàng đang gặp tình thế nguy hiểm khi phát hiện trên xe mình có quả bom được cài sẵn. Chỉ cần dừng xe, cả ông và con gái của mình đều sẽ chết. Liệu phải làm sao để bảo toàn mạng sống?


    General
    Unique ID : 337809214799882611492896748171143846890 (0xFE23B02FAA203361FA3D058638129BEA)
    Complete name : C:\Hard.Hit.2021.KOREAN.1080p.BluRay.x264.DTS-HD.MA.5.1-FGT\Hard.Hit.2021.KOREAN.1080p.BluRay.x264.DTS-HD.MA.5.1-FGT.mkv
    Format : Matroska
    Format version : Version 4
    File size : 12.2 GiB
    Duration : 1 h 34 min
    Overall bit rate mode : Variable
    Overall bit rate : 18.5 Mb/s
    Movie name : Hard.Hit.2021.KOREAN.1080p.BluRay.x264.DTS-HD.MA.5.1-FGT
    Encoded date : UTC 2022-01-21 11:35:41
    Writing application : mkvmerge v64.0.0 ('Willows') 64-bit
    Writing library : libebml v1.4.2 + libmatroska v1.6.4

    Video
    ID : 1
    Format : AVC
    Format/Info : Advanced Video Codec
    Format profile : [email protected]
    Format settings : CABAC / 4 Ref Frames
    Format settings, CABAC : Yes
    Format settings, Reference frames : 4 frames
    Codec ID : V_MPEG4/ISO/AVC
    Duration : 1 h 34 min
    Bit rate : 11.5 Mb/s
    Width : 1 920 pixels
    Height : 804 pixels
    Display aspect ratio : 2.40:1
    Frame rate mode : Constant
    Frame rate : 23.976 (24000/1001) FPS
    Color space : YUV
    Chroma subsampling : 4:2:0
    Bit depth : 8 bits
    Scan type : Progressive
    Bits/(Pixel*Frame) : 0.311
    Stream size : 7.58 GiB (62%)
    Writing library : x264 core 148 r2748 97eaef2
    Encoding settings : cabac=1 / ref=4 / deblock=1:-2:-2 / analyse=0x3:0x113 / me=umh / subme=9 / psy=1 / psy_rd=1.00:0.15 / mixed_ref=1 / me_range=16 / chroma_me=1 / trellis=2 / 8x8dct=1 / cqm=0 / deadzone=21,11 / fast_pskip=1 / chroma_qp_offset=-3 / threads=72 / lookahead_threads=3 / sliced_threads=0 / nr=0 / decimate=1 / interlaced=0 / bluray_compat=0 / constrained_intra=0 / bframes=3 / b_pyramid=2 / b_adapt=1 / b_bias=0 / direct=3 / weightb=1 / open_gop=0 / weightp=2 / keyint=250 / keyint_min=25 / scenecut=40 / intra_refresh=0 / rc_lookahead=50 / rc=2pass / mbtree=1 / bitrate=11500 / ratetol=1.0 / qcomp=0.60 / qpmin=0 / qpmax=69 / qpstep=4 / cplxblur=20.0 / qblur=0.5 / vbv_maxrate=31250 / vbv_bufsize=31250 / nal_hrd=none / filler=0 / ip_ratio=1.40 / aq=1:1.00
    Language : English
    Default : Yes
    Forced : No

    Audio #1
    ID : 2
    ID in the original source medium : 4353 (0x1101)
    Format : DTS XLL
    Format/Info : Digital Theater Systems
    Commercial name : DTS-HD Master Audio
    Codec ID : A_DTS
    Duration : 1 h 34 min
    Bit rate mode : Variable
    Bit rate : 3 595 kb/s
    Channel(s) : 6 channels
    Channel layout : C L R Ls Rs LFE
    Sampling rate : 48.0 kHz
    Frame rate : 93.750 FPS (512 SPF)
    Bit depth : 24 bits
    Compression mode : Lossless
    Stream size : 2.37 GiB (19%)
    Title : DTS-HD MA 5.1
    Language : Korean
    Default : Yes
    Forced : No
    Original source medium : Blu-ray

    Audio #2
    ID : 3
    ID in the original source medium : 4354 (0x1102)
    Format : DTS XLL
    Format/Info : Digital Theater Systems
    Commercial name : DTS-HD Master Audio
    Codec ID : A_DTS
    Duration : 1 h 34 min
    Bit rate mode : Variable
    Bit rate : 3 401 kb/s
    Channel(s) : 6 channels
    Channel layout : C L R Ls Rs LFE
    Sampling rate : 48.0 kHz
    Frame rate : 93.750 FPS (512 SPF)
    Bit depth : 24 bits
    Compression mode : Lossless
    Stream size : 2.24 GiB (18%)
    Title : DTS-HD MA 5.1
    Language : English
    Default : No
    Forced : No
    Original source medium : Blu-ray

    Text #1
    ID : 4
    Format : UTF-8
    Codec ID : S_TEXT/UTF8
    Codec ID/Info : UTF-8 Plain Text
    Duration : 1 h 27 min
    Bit rate : 40 b/s
    Count of elements : 953
    Stream size : 26.0 KiB (0%)
    Language : English
    Default : Yes
    Forced : No

    Text #2
    ID : 5
    Format : UTF-8
    Codec ID : S_TEXT/UTF8
    Codec ID/Info : UTF-8 Plain Text
    Duration : 1 h 31 min
    Bit rate : 49 b/s
    Count of elements : 1258
    Stream size : 33.4 KiB (0%)
    Title : SDH
    Language : English
    Default : No
    Forced : No

    Text #3
    ID : 6
    Format : UTF-8
    Codec ID : S_TEXT/UTF8
    Codec ID/Info : UTF-8 Plain Text
    Duration : 1 h 27 min
    Bit rate : 46 b/s
    Count of elements : 1118
    Stream size : 30.1 KiB (0%)
    Language : English
    Default : No
    Forced : No

    Text #4
    ID : 7
    Format : UTF-8
    Codec ID : S_TEXT/UTF8
    Codec ID/Info : UTF-8 Plain Text
    Duration : 1 h 15 min
    Bit rate : 0 b/s
    Count of elements : 17
    Stream size : 474 Bytes (0%)
    Title : FORCED
    Language : English
    Default : No
    Forced : Yes

    Text #5
    ID : 8
    ID in the original source medium : 4608 (0x1200)
    Format : PGS
    Muxing mode : zlib
    Codec ID : S_HDMV/PGS
    Codec ID/Info : Picture based subtitle format used on BDs/HD-DVDs
    Duration : 1 h 8 min
    Bit rate : 288 b/s
    Count of elements : 18
    Stream size : 145 KiB (0%)
    Language : German
    Default : No
    Forced : No
    Original source medium : Blu-ray

    Text #6
    ID : 9
    ID in the original source medium : 4609 (0x1201)
    Format : PGS
    Muxing mode : zlib
    Codec ID : S_HDMV/PGS
    Codec ID/Info : Picture based subtitle format used on BDs/HD-DVDs
    Duration : 1 h 27 min
    Bit rate : 31.1 kb/s
    Count of elements : 1862
    Stream size : 19.4 MiB (0%)
    Language : German
    Default : No
    Forced : No
    Original source medium : Blu-ray

    Text #7
    ID : 10
    ID in the original source medium : 4610 (0x1202)
    Format : PGS
    Muxing mode : zlib
    Codec ID : S_HDMV/PGS
    Codec ID/Info : Picture based subtitle format used on BDs/HD-DVDs
    Duration : 1 h 27 min
    Bit rate : 25.4 kb/s
    Count of elements : 1922
    Stream size : 15.9 MiB (0%)
    Language : English
    Default : No
    Forced : No
    Original source medium : Blu-ray

    Text #8
    ID : 11
    ID in the original source medium : 4611 (0x1203)
    Format : PGS
    Muxing mode : zlib
    Codec ID : S_HDMV/PGS
    Codec ID/Info : Picture based subtitle format used on BDs/HD-DVDs
    Duration : 1 h 31 min
    Bit rate : 31.4 kb/s
    Count of elements : 2544
    Stream size : 20.5 MiB (0%)
    Language : English
    Default : No
    Forced : No
    Original source medium : Blu-ray

    Text #9
    ID : 12
    ID in the original source medium : 4612 (0x1204)
    Format : PGS
    Muxing mode : zlib
    Codec ID : S_HDMV/PGS
    Codec ID/Info : Picture based subtitle format used on BDs/HD-DVDs
    Duration : 1 h 15 min
    Bit rate : 615 b/s
    Count of elements : 34
    Stream size : 340 KiB (0%)
    Language : English
    Default : No
    Forced : No
    Original source medium : Blu-ray

    Menu
    00:00:00.000 : en:Chapter 01
    00:04:59.716 : en:Chapter 02
    00:14:17.106 : en:Chapter 03
    00:19:50.856 : en:Chapter 04
    00:25:33.323 : en:Chapter 05
    00:29:39.444 : en:Chapter 06
    00:37:16.984 : en:Chapter 07
    00:43:45.956 : en:Chapter 08
    00:50:43.623 : en:Chapter 09
    00:55:30.493 : en:Chapter 10
    01:01:05.703 : en:Chapter 11
    01:08:08.334 : en:Chapter 12
    01:12:58.207 : en:Chapter 13
    01:18:13.438 : en:Chapter 14
    01:23:39.305 : en:Chapter 15
    01:29:51.427 : en:Chapter 16


    [​IMG] [​IMG]
    [​IMG] [​IMG]
    [​IMG] [​IMG]





    Fshare ~ 12.24GB

    Nhấn nút Cảm ơn (dưới chân bài) để thấy link!


    4Share

    Nhấn nút Cảm ơn (dưới chân bài) để thấy link!


    Sub Việt

    https://subscene.com/subtitles/hard-hit-balsinjehan






    mhd https://hdvietnam.com/threads/hanh-...p-bluray-dd5-1x264-xmd-an-tu-tren-xe.1755570/

    720p https://hdvietnam.com/threads/hanh-...ray-x264-dts-hd-ma-5-1-an-tu-tren-xe.1755378/

    1080p https://hdvietnam.com/threads/hanh-...ray-x264-dts-hd-ma-5-1-an-tu-tren-xe.1755377/

    Thuyết minh

    Remux https://hdvietnam.com/threads/hanh-...emux-avc-dts-hd-ma-5-1-an-tu-tren-xe.1755273/

    ISO https://hdvietnam.com/threads/iso-h...ts-hd-ma-5-1-untouched-an-tu-tren-xe.1755272/
     
    Chỉnh sửa cuối: 20/2/22
  3. xemaydinh

    xemaydinh Tem

    Tham gia ngày:
    3/7/10
    Bài viết:
    35,934
    Đã được cảm ơn:
    188,921
    Hard.Hit.2021.KOREAN.1080p.BluRay.x264.DTS-HD.MA.5.1-FGT.mkv


    4Share

    Nhấn nút Cảm ơn (dưới chân bài) để thấy link!
     
  4. xemaydinh

    xemaydinh Tem

    Tham gia ngày:
    3/7/10
    Bài viết:
    35,934
    Đã được cảm ơn:
    188,921
    Hard Hit 2021 1080p BluRay x264 DTS-WiKi

    4Share

    Nhấn nút Cảm ơn (dưới chân bài) để thấy link!
     

Chia sẻ trang này