[MULTI] [Hành động] Gunpowder Milkshake 2021 ViE 720p BluRay x264 DTS-Mẹ Con Sát Thủ

Thảo luận trong 'Phim có audio Việt' bắt đầu bởi xemaydinh, 9/10/21.

  1. xemaydinh

    xemaydinh Tem

    Tham gia ngày:
    3/7/10
    Bài viết:
    35,967
    Đã được cảm ơn:
    189,616
    Gunpowder Milkshake 2021 ViE 720p BluRay x264 DTS-FGT
    Mẹ Con Sát Thủ
    [​IMG]


    Ba thế hệ phụ nữ chống lại những kẻ có thể lấy đi mọi thứ của họ.


    Video
    ID : 1
    Format : AVC
    Format/Info : Advanced Video Codec
    Format profile : [email protected]
    Format settings : CABAC / 4 Ref Frames
    Format settings, CABAC : Yes
    Format settings, Reference frames : 4 frames
    Codec ID : V_MPEG4/ISO/AVC
    Duration : 1 h 54 min
    Bit rate : 5 500 kb/s
    Width : 1 280 pixels
    Height : 534 pixels
    Display aspect ratio : 2.40:1
    Original display aspect ratio : 2.40:1
    Frame rate mode : Constant
    Frame rate : 24.000 FPS
    Color space : YUV
    Chroma subsampling : 4:2:0
    Bit depth : 8 bits
    Scan type : Progressive
    Bits/(Pixel*Frame) : 0.335
    Stream size : 4.41 GiB (78%)
    Writing library : x264 core 148 r2795M aaa9aa8
    Encoding settings : cabac=1 / ref=4 / deblock=1:-2:-2 / analyse=0x3:0x113 / me=umh / subme=9 / psy=1 / psy_rd=1.00:0.15 / mixed_ref=1 / me_range=16 / chroma_me=1 / trellis=2 / 8x8dct=1 / cqm=0 / deadzone=21,11 / fast_pskip=1 / chroma_qp_offset=-3 / threads=24 / lookahead_threads=3 / sliced_threads=0 / nr=0 / decimate=1 / interlaced=0 / bluray_compat=0 / constrained_intra=0 / bframes=3 / b_pyramid=2 / b_adapt=1 / b_bias=0 / direct=3 / weightb=1 / open_gop=0 / weightp=2 / keyint=250 / keyint_min=25 / scenecut=40 / intra_refresh=0 / rc_lookahead=50 / rc=2pass / mbtree=1 / bitrate=5500 / ratetol=1.0 / qcomp=0.60 / qpmin=0 / qpmax=69 / qpstep=4 / cplxblur=20.0 / qblur=0.5 / vbv_maxrate=31250 / vbv_bufsize=31250 / nal_hrd=none / filler=0 / ip_ratio=1.40 / aq=1:1.00
    Language : English
    Default : Yes
    Forced : No

    Audio
    ID : 2
    ID in the original source medium : 4353 (0x1101)
    Format : DTS
    Format/Info : Digital Theater Systems
    Codec ID : A_DTS
    Duration : 1 h 54 min
    Bit rate mode : Constant
    Bit rate : 1 509 kb/s
    Channel(s) : 6 channels
    Channel layout : C L R Ls Rs LFE
    Sampling rate : 48.0 kHz
    Frame rate : 93.750 FPS (512 SPF)
    Bit depth : 24 bits
    Compression mode : Lossy
    Stream size : 1.21 GiB (22%)
    Title : DTS 5.1
    Language : English
    Default : No
    Forced : No
    Original source medium : Blu-ray

    Text
    ID : 3
    Format : UTF-8
    Codec ID : S_TEXT/UTF8
    Codec ID/Info : UTF-8 Plain Text
    Duration : 1 h 47 min
    Bit rate : 34 b/s
    Count of elements : 770
    Stream size : 27.0 KiB (0%)
    Title : SRT
    Language : English
    Default : Yes
    Forced : No

    Menu
    00:00:00.000 : Chapter 01
    00:09:24.375 : Chapter 02
    00:19:24.375 : Chapter 03
    00:28:32.541 : Chapter 04
    00:38:27.833 : Chapter 05
    00:50:18.708 : Chapter 06
    00:58:24.875 : Chapter 07
    01:07:01.625 : Chapter 08
    01:18:17.125 : Chapter 09
    01:24:28.375 : Chapter 10
    01:34:54.541 : Chapter 11
    01:41:03.416 : Chapter 12


    AUDIO.........: Vietnamese AC-3 6 Channels 640 kb/s




    mhd https://www.fshare.vn/file/MN7QVVGEB6NF

    720p https://www.hdvietnam.com/threads/h...-720p-bluray-x264-dts-me-con-sat-thu.1719367/

    1080p https://www.hdvietnam.com/threads/h...ay-dts-hd-ma-5-1-x264-me-con-sat-thu.1719160/

    Thuyết minh

    Remux https://www.hdvietnam.com/threads/h...ray-avc-dts-hd-ma-5-1-me-con-sat-thu.1719360/

    ISO https://www.hdvietnam.com/threads/h...c-dts-hd-ma-5-1-cyber-me-con-sat-thu.1719358/
     
    Chỉnh sửa cuối: 10/10/21
    jozobig.19781512 and nvqhaiduong like this.

Chia sẻ trang này