[Hành động] Gunpowder Milkshake 2021 m720p BluRay H264 AAC-RARBG-Mẹ Con Sát Thủ

Thảo luận trong 'mHD, SD' bắt đầu bởi xemaydinh, 10/10/21.

  1. xemaydinh

    xemaydinh Tem

    Tham gia ngày:
    3/7/10
    Bài viết:
    36,029
    Đã được cảm ơn:
    190,907
    Gunpowder Milkshake 2021 m720p BluRay H264 AAC-RARBG
    Mẹ Con Sát Thủ
    [​IMG]


    Ba thế hệ phụ nữ chống lại những kẻ có thể lấy đi mọi thứ của họ.


    Video
    ID : 1
    Format : AVC
    Format/Info : Advanced Video Codec
    Format profile : [email protected]
    Format settings : CABAC / 4 Ref Frames
    Format settings, CABAC : Yes
    Format settings, Reference frames : 4 frames
    Codec ID : avc1
    Codec ID/Info : Advanced Video Coding
    Duration : 1 h 54 min
    Bit rate : 1 500 kb/s
    Width : 1 280 pixels
    Height : 534 pixels
    Display aspect ratio : 2.40:1
    Original display aspect ratio : 2.40:1
    Frame rate mode : Constant
    Frame rate : 24.000 FPS
    Color space : YUV
    Chroma subsampling : 4:2:0
    Bit depth : 8 bits
    Scan type : Progressive
    Bits/(Pixel*Frame) : 0.091
    Stream size : 1.20 GiB (87%)
    Writing library : x264 core 152 r2851M ba24899
    Encoding settings : cabac=1 / ref=4 / deblock=1:-1:-1 / analyse=0x3:0x113 / me=umh / subme=9 / psy=1 / psy_rd=1.00:0.15 / mixed_ref=1 / me_range=24 / chroma_me=1 / trellis=2 / 8x8dct=1 / cqm=0 / deadzone=21,11 / fast_pskip=1 / chroma_qp_offset=-3 / threads=16 / lookahead_threads=4 / sliced_threads=0 / nr=0 / decimate=1 / interlaced=0 / bluray_compat=0 / constrained_intra=0 / bframes=3 / b_pyramid=2 / b_adapt=2 / b_bias=0 / direct=3 / weightb=1 / open_gop=0 / weightp=2 / keyint=250 / keyint_min=25 / scenecut=40 / intra_refresh=0 / rc_lookahead=50 / rc=2pass / mbtree=1 / bitrate=1500 / ratetol=1.0 / qcomp=0.60 / qpmin=0 / qpmax=69 / qpstep=4 / cplxblur=20.0 / qblur=0.5 / vbv_maxrate=31250 / vbv_bufsize=31250 / nal_hrd=none / filler=0 / ip_ratio=1.40 / aq=3:1.00
    Encoded date : UTC 2021-10-08 20:36:21
    Tagged date : UTC 2021-10-08 20:36:21
    Codec configuration box : avcC

    Audio
    ID : 2
    Format : AAC LC
    Format/Info : Advanced Audio Codec Low Complexity
    Codec ID : mp4a-40-2
    Duration : 1 h 54 min
    Bit rate mode : Constant
    Bit rate : 224 kb/s
    Channel(s) : 6 channels
    Channel layout : C L R Ls Rs LFE
    Sampling rate : 48.0 kHz
    Frame rate : 46.875 FPS (1024 SPF)
    Compression mode : Lossy
    Stream size : 184 MiB (13%)
    Language : English
    Default : Yes
    Alternate group : 1
    Encoded date : UTC 2021-10-08 20:36:21
    Tagged date : UTC 2021-10-08 20:36:21



    mhd https://www.fshare.vn/file/MN7QVVGEB6NF

    720p https://www.hdvietnam.com/threads/h...-720p-bluray-x264-dts-me-con-sat-thu.1719367/

    1080p https://www.hdvietnam.com/threads/h...ay-dts-hd-ma-5-1-x264-me-con-sat-thu.1719160/

    Thuyết minh https://www.hdvietnam.com/threads/h...-720p-bluray-x264-dts-me-con-sat-thu.1719416/

    Remux https://www.hdvietnam.com/threads/h...ray-avc-dts-hd-ma-5-1-me-con-sat-thu.1719360/

    ISO https://www.hdvietnam.com/threads/h...c-dts-hd-ma-5-1-cyber-me-con-sat-thu.1719358/
     
    Chỉnh sửa cuối: 11/10/21
    Bale cảm ơn bài này.
  2. xemaydinh

    xemaydinh Tem

    Tham gia ngày:
    3/7/10
    Bài viết:
    36,029
    Đã được cảm ơn:
    190,907

Chia sẻ trang này