[Hành động] Fight Back to School 1991 BluRay REMUX 1080p AVC TrueHD 5.1 ~ Trường học Uy Long (Vietsu

Thảo luận trong 'Bluray Remux' bắt đầu bởi adm820, 1/1/20.

  1. adm820

    adm820 Moderator Thành viên BQT

    Tham gia ngày:
    1/12/10
    Bài viết:
    17,259
    Đã được cảm ơn:
    324,371
    Giới tính:
    Nam
    [​IMG]

    upload_2020-1-1_15-37-40.png

    Mã:
    Complete name               : Fight Back to School 1991 BluRay REMUX 1080p AVC TrueHD 5.1.mkv
    Format                      : Matroska
    
    
    	

    Format version : Version 4

    File size : 18.3 GiB Duration : 1 h 40 min Overall bit rate mode : Variable Overall bit rate : 25.9 Mb/s Movie name : Fight Back to School 1991 BluRay REMUX 1080p AVC TrueHD 5.1 Encoded date : UTC 2019-12-31 13:49:23 Writing application : mkvmerge v41.0.0 ('Smarra') 64-bit Writing library : libebml v1.3.9 + libmatroska v1.5.2 Video ID : 1 Format : AVC Format/Info : Advanced Video Codec Format profile : [email protected] Format settings : CABAC / 4 Ref Frames Format settings, CABAC : Yes Format settings, Reference : 4 frames Codec ID : V_MPEG4/ISO/AVC Duration : 1 h 40 min Bit rate mode : Variable Bit rate : 22.5 Mb/s Maximum bit rate : 33.0 Mb/s Width : 1 920 pixels Height : 1 080 pixels Display aspect ratio : 16:9 Frame rate mode : Constant Frame rate : 24.000 FPS Standard : NTSC Color space : YUV Chroma subsampling : 4:2:0 Bit depth : 8 bits Scan type : Progressive Bits/(Pixel*Frame) : 0.452 Stream size : 15.9 GiB (87%) Default : Yes Forced : No Color range : Limited Color primaries : BT.709 Transfer characteristics : BT.709 Matrix coefficients : BT.709 Audio #1 ID : 2 Format : MLP FBA Format/Info : Meridian Lossless Packing FBA Commercial name : Dolby TrueHD Codec ID : A_TRUEHD Duration : 1 h 40 min Bit rate mode : Variable Bit rate : 2 674 kb/s Maximum bit rate : 4 002 kb/s Channel(s) : 6 channels Channel layout : L R C LFE Ls Rs Sampling rate : 96.0 kHz Frame rate : 1 200.000 FPS (80 SPF) Compression mode : Lossless Stream size : 1.89 GiB (10%) Language : Chinese Default : Yes Forced : No Audio #2 ID : 3 Format : AC-3 Format/Info : Audio Coding 3 Commercial name : Dolby Digital Codec ID : A_AC3 Duration : 1 h 40 min Bit rate mode : Constant Bit rate : 640 kb/s Channel(s) : 6 channels Channel layout : L R C LFE Ls Rs Sampling rate : 48.0 kHz Frame rate : 31.250 FPS (1536 SPF) Compression mode : Lossy Stream size : 462 MiB (2%) Language : Chinese Service kind : Complete Main Default : No Forced : No Text #1 ID : 4 Format : PGS Muxing mode : zlib Codec ID : S_HDMV/PGS Codec ID/Info : Picture based subtitle format used on BDs/HD-DVDs Duration : 1 h 34 min Bit rate : 37.1 kb/s Count of elements : 2655 Stream size : 25.2 MiB (0%) Language : Chinese Default : Yes Forced : No Text #2 ID : 5 Format : PGS Muxing mode : zlib Codec ID : S_HDMV/PGS Codec ID/Info : Picture based subtitle format used on BDs/HD-DVDs Duration : 1 h 34 min Bit rate : 36.3 kb/s Count of elements : 2655 Stream size : 24.6 MiB (0%) Language : Chinese Default : No Forced : No

    [​IMG] [​IMG] [​IMG] [​IMG] [​IMG]


    Link tải (sub Việt có sẵn trong phim )


    Nhấn nút Cảm ơn (dưới chân bài) để thấy link!

     

Chia sẻ trang này