[Hành Động] Dune 1984 REMASTERED 1080p BluRay x264-NUDE- Xứ Cát

Thảo luận trong 'Fshare.vn' bắt đầu bởi xemaydinh, 27/10/21.

  1. xemaydinh

    xemaydinh Tem

    Tham gia ngày:
    3/7/10
    Bài viết:
    36,009
    Đã được cảm ơn:
    190,573
    Dune 1984 REMASTERED 1080p BluRay x264-NUDE - Xứ Cát
    [​IMG]



    Dune 1984 - Với Xứ Cát, Frank Herbert vẽ lên một miền cát Arrakis đầy bí ẩn và quyến rũ. Ở đó có nền khoa học kỹ thuật phát triển với tàu chim, máy tính – người Mentat, súng laze những vẫn đầy hoang sơ với những sinh vật đáng sợ như sâu cát. Ở đó có những mưu toan đấu đá giữa các gia tộc Atreides, Harkonnen, Corrino, và học viện Bene Gesserit; nhưng ở đó cũng toát lên nét thuần hậu của người Fremen và tình cảm chân thành giữa con người với nhau.

    Video

    ID : 1
    Format : AVC
    Format/Info : Advanced Video Codec
    Format profile : [email protected]
    Format settings : CABAC / 5 Ref Frames
    Format settings, CABAC : Yes
    Format settings, Reference frames : 5 frames
    Codec ID : V_MPEG4/ISO/AVC
    Duration : 2 h 16 min
    Bit rate : 19.8 Mb/s
    Width : 1 920 pixels
    Height : 816 pixels
    Display aspect ratio : 2.35:1
    Frame rate mode : Constant
    Frame rate : 23.976 (24000/1001) FPS
    Color space : YUV
    Chroma subsampling : 4:2:0
    Bit depth : 8 bits
    Scan type : Progressive
    Bits/(Pixel*Frame) : 0.527
    Stream size : 18.9 GiB (90%)
    Writing library : x264 core 164 r3075 66a5bc1
    Encoding settings : cabac=1 / ref=5 / deblock=1:-3:-3 / analyse=0x3:0x133 / me=umh / subme=9 / psy=1 / psy_rd=1.10:0.00 / mixed_ref=1 / me_range=48 / chroma_me=1 / trellis=2 / 8x8dct=1 / cqm=0 / deadzone=21,11 / fast_pskip=0 / chroma_qp_offset=-2 / threads=25 / lookahead_threads=2 / sliced_threads=0 / nr=0 / decimate=0 / interlaced=0 / bluray_compat=0 / constrained_intra=0 / bframes=3 / b_pyramid=2 / b_adapt=2 / b_bias=0 / direct=3 / weightb=1 / open_gop=0 / weightp=2 / keyint=250 / keyint_min=23 / scenecut=40 / intra_refresh=0 / rc_lookahead=60 / rc=crf / mbtree=1 / crf=18.8 / qcomp=0.60 / qpmin=0 / qpmax=69 / qpstep=4 / ip_ratio=1.40 / aq=3:0.70
    Default : Yes
    Forced : No
    Color range : Limited
    Matrix coefficients : BT.709

    Audio
    ID : 2
    Format : DTS XLL
    Format/Info : Digital Theater Systems
    Commercial name : DTS-HD Master Audio
    Codec ID : A_DTS
    Duration : 2 h 16 min
    Bit rate mode : Variable
    Bit rate : 2 064 kb/s
    Channel(s) : 6 channels
    Channel layout : C L R Ls Rs LFE
    Sampling rate : 48.0 kHz
    Frame rate : 93.750 FPS (512 SPF)
    Bit depth : 16 bits
    Compression mode : Lossless
    Stream size : 1.97 GiB (9%)
    Title : DTS-HD MA 5.1
    Language : English
    Default : Yes
    Forced : No

    Text #1
    ID : 3
    Format : UTF-8
    Codec ID : S_TEXT/UTF8
    Codec ID/Info : UTF-8 Plain Text
    Duration : 2 h 12 min
    Bit rate : 39 b/s
    Count of elements : 1111
    Stream size : 37.8 KiB (0%)
    Title : Full SRT
    Language : English
    Default : No
    Forced : No

    Text #2
    ID : 4
    Format : PGS
    Muxing mode : zlib
    Codec ID : S_HDMV/PGS
    Codec ID/Info : Picture based subtitle format used on BDs/HD-DVDs
    Duration : 2 h 12 min
    Bit rate : 21.2 kb/s
    Count of elements : 2222
    Stream size : 20.0 MiB (0%)
    Title : Full
    Language : English
    Default : No
    Forced : No

    Text #3
    ID : 5
    Format : PGS
    Muxing mode : zlib
    Codec ID : S_HDMV/PGS
    Codec ID/Info : Picture based subtitle format used on BDs/HD-DVDs
    Duration : 2 h 12 min
    Bit rate : 24.6 kb/s
    Count of elements : 2224
    Stream size : 23.3 MiB (0%)
    Title : German
    Language : German
    Default : No
    Forced : No

    Menu
    00:00:00.000 : Chapter 01
    00:03:50.981 : Chapter 02
    00:10:35.134 : Chapter 03
    00:18:22.143 : Chapter 04
    00:24:50.906 : Chapter 05
    00:30:29.369 : Chapter 06
    00:36:52.502 : Chapter 07
    00:44:30.585 : Chapter 08
    00:49:54.241 : Chapter 09
    00:54:08.537 : Chapter 10
    01:01:11.459 : Chapter 11
    01:10:37.900 : Chapter 12
    01:15:42.538 : Chapter 13
    01:21:04.735 : Chapter 14
    01:25:48.727 : Chapter 15
    01:33:15.673 : Chapter 16
    01:41:19.282 : Chapter 17
    01:48:08.607 : Chapter 18
    01:55:11.988 : Chapter 19
    01:58:46.494 : Chapter 20
    02:06:48.643 : Chapter 21
    02:13:04.268 : Chapter 22

    [​IMG]
    [​IMG]
    [​IMG]



    Phần 2 https://www.hdvietnam.com/threads/h...ddp5-1-atmos-x264-cmrg-hanh-tinh-cat.1724430/

    mhd https://www.hdvietnam.com/threads/h...0p-1080p-bluray-dd5-1x264-xmd-xu-cat.1725984/

    720p https://www.hdvietnam.com/threads/h...astered-720p-bluray-x264-nude-xu-cat.1725982/

    1080p https://www.hdvietnam.com/threads/h...stered-1080p-bluray-x264-nude-xu-cat.1725981/

    Thuyết minh

    Remux https://www.hdvietnam.com/threads/h...stered-1080p-bluray-x264-nude-xu-cat.1725981/

    ISO
     
    Chỉnh sửa cuối: 27/10/21
    anhthao88 and shake_kruise like this.
  2. toiyeuhdvietnam1996

    toiyeuhdvietnam1996 New Member

    Tham gia ngày:
    31/10/21
    Bài viết:
    28
    Đã được cảm ơn:
    3
    Giới tính:
    Nam
    Cảm ơn chủ thớt nhé!
     

Chia sẻ trang này