[Hành Động] Castle Falls 2021 1080p BluRay REMUX AVC DTS-HD MA 5 1-PiRaTeS- Lâu Đài Sụp Đổ

Thảo luận trong 'Bluray Remux' bắt đầu bởi xemaydinh, 18/1/22.

  1. xemaydinh

    xemaydinh Tem

    Tham gia ngày:
    3/7/10
    Bài viết:
    36,016
    Đã được cảm ơn:
    190,651
    Castle Falls 2021 1080p BluRay REMUX AVC DTS-HD MA 5 1-PiRaTeS

    Lâu Đài Sụp Đổ
    [​IMG]



    nội dung xoay quanh câu chuyện tại một căn chung cư sắp bị phá hủy. Theo nguồn tin, ở đó có một khối lượng tài sản lớn và ba thế lực đều mong muốn có được. Họ bắt đầu xảy ra các tranh chấp, dẫn tới một cuộc chiến đẫm máu xảy ra. Rồi ai sẽ lấy được nguồn tài sản đó?

    General

    Unique ID : 305824929293919684433432894501365579167 (0xE613BD28FDC2DCACECC09DE315C17D9F)
    Complete name : Castle.Falls.2021.1080p.BluRay.REMUX.AVC.DTS-HD.MA.5.1-PiRaTeS.mkv
    Format : Matroska
    Format version : Version 2
    File size : 20.9 GiB
    Duration : 1 h 29 min
    Overall bit rate mode : Variable
    Overall bit rate : 33.4 Mb/s
    Encoded date : UTC 2021-12-21 17:52:15
    Writing application : MakeMKV v1.16.5 linux(x64-release)
    Writing library : libmakemkv v1.16.5 (1.3.10/1.5.2) x86_64-linux-gnu

    Video
    ID : 1
    ID in the original source medium : 4113 (0x1011)
    Format : AVC
    Format/Info : Advanced Video Codec
    Format profile : [email protected]
    Format settings : CABAC / 4 Ref Frames
    Format settings, CABAC : Yes
    Format settings, Reference frames : 4 frames
    Codec ID : V_MPEG4/ISO/AVC
    Duration : 1 h 29 min
    Bit rate mode : Constant
    Bit rate : 30.7 Mb/s
    Nominal bit rate : 33.0 Mb/s
    Width : 1 920 pixels
    Height : 1 080 pixels
    Display aspect ratio : 16:9
    Frame rate mode : Constant
    Frame rate : 23.976 (24000/1001) FPS
    Color space : YUV
    Chroma subsampling : 4:2:0
    Bit depth : 8 bits
    Scan type : Progressive
    Bits/(Pixel*Frame) : 0.617
    Stream size : 19.2 GiB (92%)
    Language : English
    Default : No
    Forced : No
    Original source medium : Blu-ray

    Audio
    ID : 2
    ID in the original source medium : 4352 (0x1100)
    Format : DTS XLL
    Format/Info : Digital Theater Systems
    Commercial name : DTS-HD Master Audio
    Codec ID : A_DTS
    Duration : 1 h 29 min
    Bit rate mode : Variable
    Bit rate : 2 714 kb/s
    Channel(s) : 6 channels
    Channel layout : C L R Ls Rs LFE
    Sampling rate : 48.0 kHz
    Frame rate : 93.750 FPS (512 SPF)
    Bit depth : 24 bits
    Compression mode : Lossless
    Stream size : 1.70 GiB (8%)
    Language : English
    Default : Yes
    Forced : No
    Original source medium : Blu-ray

    Text
    ID : 3
    ID in the original source medium : 4608 (0x1200)
    Format : PGS
    Codec ID : S_HDMV/PGS
    Codec ID/Info : Picture based subtitle format used on BDs/HD-DVDs
    Duration : 1 h 28 min
    Bit rate : 35.6 kb/s
    Count of elements : 2666
    Stream size : 22.5 MiB (0%)
    Language : English
    Default : No
    Forced : No
    Original source medium : Blu-ray

    Menu
    00:00:00.000 : en:Chapter 01
    00:09:28.651 : en:Chapter 02
    00:18:15.511 : en:Chapter 03
    00:26:34.509 : en:Chapter 04
    00:33:41.310 : en:Chapter 05
    00:41:31.030 : en:Chapter 06
    00:48:32.075 : en:Chapter 07
    00:52:09.668 : en:Chapter 08
    00:56:50.824 : en:Chapter 09
    01:05:27.465 : en:Chapter 10
    01:13:03.087 : en:Chapter 11
    01:24:06.541 : en:Chapter 12
    01:29:33.659 : en:Chapter 13


    [​IMG] [​IMG]
    [​IMG] [​IMG]
    [​IMG] [​IMG]




    4Share
    Nhấn nút Cảm ơn (dưới chân bài) để thấy link!




    Fshare ~ 20.91GB


    Nhấn nút Cảm ơn (dưới chân bài) để thấy link!





    Sub

    https://subscene.com/subtitles/castle-falls



    Tổng hợp phim 18+

    Tổng hợp phim full Menu (Thuyết minh+Sub Việt) bluray (nethd.org)

    Tổng hợp phim bộ Lồng tiếng, thuyết minh, sub việt

    Tổng hợp phim bluray Remux ISO 4K




    mhd

    720p

    1080p https://www.hdvietnam.com/threads/h...ay-dts-hd-ma-5-1-x264-lau-dai-sup-do.1744679/

    Thuyết minh

    Remux https://www.hdvietnam.com/threads/h...dts-hd-ma-5-1-pirates-lau-dai-sup-do.1746017/

    ISO https://www.hdvietnam.com/threads/i...c-dts-hd-ma-5-1-mteam-lau-dai-sup-do.1747228/
     

Chia sẻ trang này