[Hành Động] Apex 2021 1080p BluRay REMUX AVC DTS-HD MA 5.1-FGT - Săn Lùng

Thảo luận trong 'Bluray Remux' bắt đầu bởi xemaydinh, 23/11/21.

  1. xemaydinh

    xemaydinh Tem

    Tham gia ngày:
    3/7/10
    Bài viết:
    36,042
    Đã được cảm ơn:
    191,114
    Apex 2021 1080p BluRay REMUX AVC DTS-HD MA 5.1-FGT - Săn Lùng

    [​IMG]



    Năm thợ săn tinh nhuệ được trả tiền để săn lùng một người đàn ông trên một hòn đảo hoang vắng, tuy nhiên mọi chuyện không chỉ đơn giản như cách họ đang nghĩ. Khi này, những kẻ đi săn bỗng trở thành con mồi.

    Video
    ID : 1

    ID in the original source medium : 4113 (0x1011)

    Format : AVC
    Format/Info : Advanced Video Codec
    Format profile : [email protected]
    Format settings : CABAC / 4 Ref Frames
    Format settings, CABAC : Yes
    Format settings, Reference frames : 4 frames
    Codec ID : V_MPEG4/ISO/AVC
    Duration : 1 h 33 min
    Bit rate mode : Variable
    Bit rate : 23.4 Mb/s
    Maximum bit rate : 34.5 Mb/s
    Width : 1 920 pixels
    Height : 1 080 pixels
    Display aspect ratio : 16:9
    Frame rate mode : Constant
    Frame rate : 23.976 (24000/1001) FPS
    Color space : YUV
    Chroma subsampling : 4:2:0
    Bit depth : 8 bits
    Scan type : Progressive
    Bits/(Pixel*Frame) : 0.470
    Stream size : 15.3 GiB (86%)
    Language : English
    Default : No
    Forced : No
    Original source medium : Blu-ray

    Audio
    ID : 2
    ID in the original source medium : 4353 (0x1101)
    Format : DTS XLL
    Format/Info : Digital Theater Systems
    Commercial name : DTS-HD Master Audio
    Codec ID : A_DTS
    Duration : 1 h 33 min
    Bit rate mode : Variable
    Bit rate : 3 804 kb/s
    Channel(s) : 6 channels
    Channel layout : C L R Ls Rs LFE
    Sampling rate : 48.0 kHz
    Frame rate : 93.750 FPS (512 SPF)
    Bit depth : 24 bits
    Compression mode : Lossless
    Stream size : 2.49 GiB (14%)
    Title : DTS-HD MA 5.1
    Language : English
    Default : Yes
    Forced : No
    Original source medium : Blu-ray

    Text #1
    ID : 3
    Format : UTF-8
    Codec ID : S_TEXT/UTF8
    Codec ID/Info : UTF-8 Plain Text
    Duration : 1 h 27 min
    Bit rate : 50 b/s
    Count of elements : 1228
    Stream size : 32.7 KiB (0%)
    Language : English
    Default : Yes
    Forced : No

    Text #2
    ID : 4
    Format : UTF-8
    Codec ID : S_TEXT/UTF8
    Codec ID/Info : UTF-8 Plain Text
    Duration : 1 h 32 min
    Bit rate : 53 b/s
    Count of elements : 1487
    Stream size : 36.1 KiB (0%)
    Title : SDH
    Language : English
    Default : No
    Forced : No

    Text #3
    ID : 5
    ID in the original source medium : 4608 (0x1200)
    Format : PGS
    Muxing mode : zlib
    Codec ID : S_HDMV/PGS
    Codec ID/Info : Picture based subtitle format used on BDs/HD-DVDs
    Duration : 1 h 32 min
    Bit rate : 41.6 kb/s
    Count of elements : 2974
    Stream size : 27.4 MiB (0%)
    Language : English
    Default : No
    Forced : No
    Original source medium : Blu-ray

    Text #4
    ID : 6
    ID in the original source medium : 4609 (0x1201)
    Format : PGS
    Muxing mode : zlib
    Codec ID : S_HDMV/PGS
    Codec ID/Info : Picture based subtitle format used on BDs/HD-DVDs
    Duration : 1 h 15 min
    Bit rate : 243 b/s
    Count of elements : 12
    Stream size : 135 KiB (0%)
    Language : German
    Default : No
    Forced : No
    Original source medium : Blu-ray

    Menu
    00:00:00.000 : en:Chapter 01
    00:08:58.788 : en:Chapter 02
    00:14:19.650 : en:Chapter 03
    00:21:46.430 : en:Chapter 04
    00:27:54.923 : en:Chapter 05
    00:35:23.037 : en:Chapter 06
    00:43:24.643 : en:Chapter 07
    00:52:23.265 : en:Chapter 08
    00:59:42.996 : en:Chapter 09
    01:12:06.613 : en:Chapter 10
    01:21:47.527 : en:Chapter 11
    01:31:29.066 : en:Chapter 12



    mhd https://www.hdvietnam.com/threads/h...-1080p-bluray-dd5-1x264-xmd-san-lung.1735853/

    720p https://www.hdvietnam.com/threads/hanh-dong-apex-2021-720p-bluray-x264-san-lung.1735852/

    1080p https://www.hdvietnam.com/threads/hanh-dong-apex-2021-1080p-bluray-x264-san-lung.1735851/

    Thuyết minh

    Remux https://www.hdvietnam.com/threads/h...remux-avc-dts-hd-ma-5-1-fgt-san-lung.1735817/

    ISO
     
    Chỉnh sửa cuối: 23/11/21
    racingspeed and theaminh81 like this.
  2. xemaydinh

    xemaydinh Tem

    Tham gia ngày:
    3/7/10
    Bài viết:
    36,042
    Đã được cảm ơn:
    191,114

Chia sẻ trang này