[Hành Động] 9 Bullets 2022 1080p BluRay REMUX AVC DTS-HD MA 5 1-PiRaTeS- 9 Viên Đạn

Thảo luận trong 'Bluray Remux' bắt đầu bởi canodinh, 18/6/22.

  1. canodinh

    canodinh Well-Known Member

    Tham gia ngày:
    10/9/11
    Bài viết:
    697
    Đã được cảm ơn:
    5,229
    9 Bullets 2022 1080p BluRay REMUX AVC DTS-HD MA 5 1-PiRaTeS| 18+

    9 Viên Đạn

    [​IMG]

    cân nhắc​


    Nội dung bộ phim là câu chuyện về một vũ công burlesque phải chạy trốn để cứu một chàng trai hàng xóm bị người yêu cũ đe dọa tính mạng.



    General
    Unique ID : 28728748762066690808503288948352160704 (0x159CF4AC11A85C5E8B890E2D3AC913C0)
    Complete name : 9.Bullets.2022.1080p.BluRay.REMUX.AVC.DTS-HD.MA.5.1-PiRaTeS.mkv
    Format : Matroska
    Format version : Version 2
    File size : 19.5 GiB
    Duration : 1 h 36 min
    Overall bit rate mode : Variable
    Overall bit rate : 28.9 Mb/s
    Encoded date : UTC 2022-06-15 22:16:56
    Writing application : MakeMKV v1.16.7 linux(x64-release)
    Writing library : libmakemkv v1.16.7 (1.3.10/1.5.2) x86_64-linux-gnu

    Video
    ID : 1
    ID in the original source medium : 4113 (0x1011)
    Format : AVC
    Format/Info : Advanced Video Codec
    Format profile : [email protected]
    Format settings : CABAC / 4 Ref Frames
    Format settings, CABAC : Yes
    Format settings, Reference frames : 4 frames
    Format settings, GOP : M=3, N=12
    Codec ID : V_MPEG4/ISO/AVC
    Duration : 1 h 36 min
    Bit rate mode : Variable
    Bit rate : 25.6 Mb/s
    Maximum bit rate : 33.3 Mb/s
    Width : 1 920 pixels
    Height : 1 080 pixels
    Display aspect ratio : 16:9
    Frame rate mode : Constant
    Frame rate : 23.976 (24000/1001) FPS
    Standard : NTSC
    Color space : YUV
    Chroma subsampling : 4:2:0
    Bit depth : 8 bits
    Scan type : Progressive
    Bits/(Pixel*Frame) : 0.515
    Stream size : 17.3 GiB (89%)
    Language : English
    Default : No
    Forced : No
    Color range : Limited
    Color primaries : BT.709
    Transfer characteristics : BT.709
    Matrix coefficients : BT.709
    Original source medium : Blu-ray

    Audio
    ID : 2
    ID in the original source medium : 4352 (0x1100)
    Format : DTS XLL
    Format/Info : Digital Theater Systems
    Commercial name : DTS-HD Master Audio
    Codec ID : A_DTS
    Duration : 1 h 36 min
    Bit rate mode : Variable
    Bit rate : 3 208 kb/s
    Channel(s) : 6 channels
    Channel layout : C L R Ls Rs LFE
    Sampling rate : 48.0 kHz
    Frame rate : 93.750 FPS (512 SPF)
    Bit depth : 24 bits
    Compression mode : Lossless
    Stream size : 2.16 GiB (11%)
    Language : English
    Default : Yes
    Forced : No
    Original source medium : Blu-ray

    Text
    ID : 3
    ID in the original source medium : 4608 (0x1200)
    Format : PGS
    Codec ID : S_HDMV/PGS
    Codec ID/Info : Picture based subtitle format used on BDs/HD-DVDs
    Duration : 1 h 36 min
    Bit rate : 55.5 kb/s
    Count of elements : 2258
    Stream size : 38.2 MiB (0%)
    Language : English
    Default : No
    Forced : No
    Original source medium : Blu-ray

    Menu
    00:00:00.000 : en:Chapter 01
    00:07:35.455 : en:Chapter 02
    00:15:06.822 : en:Chapter 03
    00:22:03.030 : en:Chapter 04
    00:30:31.204 : en:Chapter 05
    00:38:02.863 : en:Chapter 06
    00:46:13.479 : en:Chapter 07
    00:55:42.964 : en:Chapter 08
    01:05:08.237 : en:Chapter 09
    01:11:16.814 : en:Chapter 10
    01:21:03.984 : en:Chapter 11
    01:30:13.533 : en:Chapter 12


    [​IMG] [​IMG]
    [​IMG] [​IMG]
    [​IMG] [​IMG]


    Fshare ~19.49 GB

    Nhấn nút Cảm ơn (dưới chân bài) để thấy link!


    4Share

    Nhấn nút Cảm ơn (dưới chân bài) để thấy link!


    Sub Việt

    https://subscene.com/subtitles/9-bullets

    Tổng hợp phim 18+

    Link topic https://hdvietnam.org/threads/mutil...ng-nhat-ban-au-my-cap-nhat-hang-ngay.1796232/

    Nhấn nút Cảm ơn (dưới chân bài) để thấy link!


    Tổng hợp phim full Menu (Thuyết minh+Sub Việt) bluray (nethd.org)

    Nhấn nút Cảm ơn (dưới chân bài) để thấy link!


    Tổng hợp phim bộ Lồng tiếng, thuyết minh, sub việt

    Nhấn nút Cảm ơn (dưới chân bài) để thấy link!


    Tổng hợp phim hàng ngày

    Link topic https://hdvietnam.org/threads/tong-hop-phim-bluray-remux-iso-cap-nhat-hang-ngay.1796055/

    Nhấn nút Cảm ơn (dưới chân bài) để thấy link!


    Tổng hợp phim bluray Remux ISO 4K




    mhd https://hdvietnam.org/threads/hanh-dong-9-bullets-2022-m1080p-bluray-aacx264-xmd-9-vien-dan.1796451/

    720p

    1080p https://hdvietnam.org/threads/hanh-...bluray-dts-hd-ma-5-1-x264-9-vien-dan.1796449/

    Thuyết minh

    Remux https://hdvietnam.org/threads/hanh-...avc-dts-hd-ma-5-1-pirates-9-vien-dan.1796452/

    ISO https://hdvietnam.org/threads/iso-h...p-avc-dts-hd-ma-5-1-mteam-9-vien-dan.1796453/
     

Chia sẻ trang này