[Hành Động | 4K HDR] Transporter.2008.UHD.BDRemux.2160p.HEVC.TrueHD Atmos.ExKinoRay-Người Vận Chuyển

Thảo luận trong '4K' bắt đầu bởi tuankbas, 3/7/19.

  1. tuankbas

    tuankbas Uploader

    Tham gia ngày:
    12/5/19
    Bài viết:
    5,684
    Đã được cảm ơn:
    224,875
    Giới tính:
    Nam
    Nghề nghiệp:
    công chức
    Nơi ở:
    Thành phố Vinh- Nghệ An
    Transporter 2008
    Người Vận Chuyển 3

    Sub Việt
    [​IMG]
    [​IMG]
    Nội Dung

    Theo Yêu cầu của một số cụ cuồng Phim, nên em úp lại phim này cho ai cần, Mọi người tải phim thì xin comment 1 vài chấm cũng được, để box không bị quên vào dĩ vãng, Link thì chết trong 30 ngày nếu không tải, do Fshare.vn quy định @@

    Trailer

    Screenshot
    [​IMG]
    [​IMG]
    [​IMG]
    [​IMG]

    Media info
    Complete name : D:\Transporter.3.2008.UHD.BDRemux.2160p.HEVC.HDR.ExKinoRay.mkv
    Format : Matroska
    Format version : Version 4
    File size : 55.5 GiB
    Duration : 1 h 44 min
    Overall bit rate mode : Variable
    Overall bit rate : 76.3 Mb/s
    Encoded date : UTC 2018-08-12 14:36:22
    Writing application : mkvmerge v25.0.0 ('Prog Noir') 64-bit
    Writing library : libebml v1.3.6 + libmatroska v1.4.9
    Cover : Yes
    Attachments : cover

    Video
    ID : 1
    Format : HEVC
    Format/Info : High Efficiency Video Coding
    Format profile : Main [email protected]@High
    HDR format : SMPTE ST 2086, HDR10 compatible
    Codec ID : V_MPEGH/ISO/HEVC
    Duration : 1 h 43 min
    Bit rate : 63.2 Mb/s
    Width : 3 840 pixels
    Height : 2 160 pixels
    Display aspect ratio : 16:9
    Frame rate mode : Constant
    Frame rate : 23.976 (24000/1001) FPS
    Color space : YUV
    Chroma subsampling : 4:2:0 (Type 2)
    Bit depth : 10 bits
    Bits/(Pixel*Frame) : 0.318
    Stream size : 45.9 GiB (83%)
    Language : English
    Default : Yes
    Forced : No
    Color range : Limited
    Color primaries : BT.2020
    Transfer characteristics : PQ
    Matrix coefficients : BT.2020 non-constant
    Mastering display color pri : Display P3
    Mastering display luminance : min: 0.0050 cd/m2, max: 1000 cd/m2
    Maximum Content Light Level : 1000 cd/m2
    Maximum Frame-Average Light : 907 cd/m2
    Audio #11
    ID : 12
    Format : MLP FBA 16-ch
    Format/Info : Meridian Lossless Packing FBA with 16-channel presentation
    Commercial name : Dolby TrueHD with Dolby Atmos
    Codec ID : A_TRUEHD
    Duration : 1 h 43 min
    Bit rate mode : Variable
    Bit rate : 4 812 kb/s
    Maximum bit rate : 7 776 kb/s
    Channel(s) : 8 channels
    Channel layout : L R C LFE Ls Rs Lb Rb
    Sampling rate : 48.0 kHz
    Frame rate : 1 200.000 FPS (40 SPF)
    Compression mode : Lossless
    Stream size : 3.49 GiB (6%)
    Title : | Original |
    Language : English
    Default : No
    Forced : No
    Number of dynamic objects : 15
    Bed channel count : 1 channel
    Bed channel configuration : LFE
    ...


    Link fshare

    Nhấn nút Cảm ơn (dưới chân bài) để thấy link!

    Size: 55.5Gb
    sub việt
    https://subscene.com/subtitles/transporter-3-2008
     
    Chỉnh sửa cuối: 28/8/20
  2. boybatri

    boybatri New Member

    Tham gia ngày:
    25/3/10
    Bài viết:
    4
    Đã được cảm ơn:
    3
    Cảm ơn bạn nhiều !
     
  3. Hung 3869

    Hung 3869 Member

    Tham gia ngày:
    22/8/16
    Bài viết:
    49
    Đã được cảm ơn:
    13
    Giới tính:
    Nam
    Bạn có phần 1,2 bộ này cho mình xin luôn nhé. cám ơn Bạn trước.
     
  4. tuankbas

    tuankbas Uploader

    Tham gia ngày:
    12/5/19
    Bài viết:
    5,684
    Đã được cảm ơn:
    224,875
    Giới tính:
    Nam
    Nghề nghiệp:
    công chức
    Nơi ở:
    Thành phố Vinh- Nghệ An
    1 và 2 chưa có 4k bác ạ
     
  5. Hung 3869

    Hung 3869 Member

    Tham gia ngày:
    22/8/16
    Bài viết:
    49
    Đã được cảm ơn:
    13
    Giới tính:
    Nam
    Thanks Bạn.
     
  6. tuatk

    tuatk Member

    Tham gia ngày:
    21/12/09
    Bài viết:
    48
    Đã được cảm ơn:
    80
    thank You
     
  7. yamaha465

    yamaha465 New Member

    Tham gia ngày:
    8/6/10
    Bài viết:
    8
    Đã được cảm ơn:
    3
    Quá hay ạ
     
  8. antony

    antony Member

    Tham gia ngày:
    12/12/09
    Bài viết:
    93
    Đã được cảm ơn:
    84
    khong tai nhung van ung ho giup nguoi nao can :)
     
    teguh and tuankbas like this.
  9. tranphulocson

    tranphulocson Well-Known Member

    Tham gia ngày:
    21/3/19
    Bài viết:
    873
    Đã được cảm ơn:
    958
    Giới tính:
    Nữ
    MANY THANKS! :rolleyes:
     
    tuankbas cảm ơn bài này.
  10. tranphulocson

    tranphulocson Well-Known Member

    Tham gia ngày:
    21/3/19
    Bài viết:
    873
    Đã được cảm ơn:
    958
    Giới tính:
    Nữ
    Chất lượng hình ảnh rất đẹp, phần audio rất hay! Bác lên luôn 1 và 2 cho trọn bộ! Thanks!:rolleyes:
     
    teguh and tuankbas like this.
  11. tuankbas

    tuankbas Uploader

    Tham gia ngày:
    12/5/19
    Bài viết:
    5,684
    Đã được cảm ơn:
    224,875
    Giới tính:
    Nam
    Nghề nghiệp:
    công chức
    Nơi ở:
    Thành phố Vinh- Nghệ An
    Đào đâu ra 2 bản kia 4K bac? Chưa ai nâng lên
     
    vanninhthuan119, cudinh and teguh like this.
  12. phaopk

    phaopk New Member

    Tham gia ngày:
    6/12/10
    Bài viết:
    25
    Đã được cảm ơn:
    8
    thanks for sharing !
     
    teguh cảm ơn bài này.
  13. hdradio

    hdradio Member

    Tham gia ngày:
    4/6/12
    Bài viết:
    615
    Đã được cảm ơn:
    19
    đang kéo, cảm ơn bác nhiều
     
    tuankbas cảm ơn bài này.
  14. suatanvietnam

    suatanvietnam New Member

    Tham gia ngày:
    5/4/19
    Bài viết:
    21
    Đã được cảm ơn:
    5
    Giới tính:
    Nữ
    Nghề nghiệp:
    Nguyễn Văn Thành, Bến Cát, Bình Dương
    Nơi ở:
    Bình Dương
    tks ad
     
    tuankbas cảm ơn bài này.
  15. gladiator13579

    gladiator13579 Active Member

    Tham gia ngày:
    14/10/17
    Bài viết:
    109
    Đã được cảm ơn:
    57
    Thank bạn nhé.
     
    tuankbas cảm ơn bài này.
  16. qdangnhat

    qdangnhat Well-Known Member

    Tham gia ngày:
    19/9/10
    Bài viết:
    2,314
    Đã được cảm ơn:
    30
    CẢM ƠN BẠN NHIỀU
     
    tuankbas cảm ơn bài này.
  17. SourGrass

    SourGrass Well-Known Member

    Tham gia ngày:
    27/11/11
    Bài viết:
    405
    Đã được cảm ơn:
    656
    Giới tính:
    Nam
    Nghề nghiệp:
    Lập trình viên .NET
    Nơi ở:
    Nơi nào dzui thì ở :))
    Cảm ơn bác nhiều :D:D:D
     
  18. tamvuongphuong

    tamvuongphuong New Member

    Tham gia ngày:
    2/10/19
    Bài viết:
    21
    Đã được cảm ơn:
    15
    Giới tính:
    Nam
    Link die rồi bác tuankbas, bác up lại được ko, trọn bộ luôn 4p, nếu có mux sẵn audio Việt và sub việt càng tuyệt vời,thanks bác
     

Chia sẻ trang này