[Fshare] [Hài] The Mad Monk 1993 VIE 1080p BluRay FLAC.2.0x264-WMD- Tế Công- Châu Tinh Trì, Trương Mạn Ngọc

Thảo luận trong 'Phim có audio Việt' bắt đầu bởi hiepga228, 26/12/21.

  1. hiepga228

    hiepga228 Well-Known Member

    Tham gia ngày:
    18/1/13
    Bài viết:
    236
    Đã được cảm ơn:
    909
    The Mad Monk 1993 VIE 1080p BluRay FLAC.2.0x264-WMD
    Tế Công
    Idmb : https://www.imdb.com/title/tt0106538/


    Thấy nhiều bạn yêu cầu reup phim này từ bài của bác Hoaitrung, sẵn mình còn file audio USLT của phim nên đăng cho các bạn nào cần

    [​IMG]

    • Đạo diễn : Đỗ Kỳ Phong
    • Diễn viên : Châu Tinh Trì, Huỳnh Thu Sinh, Ngô Quân Như, Trương Mạn Ngọc
    • Nội dung : Truyện phim Tế Công bắt đầu từ việc La Hán Phục Hổ (Châu Tinh Trì) vì muốn chứng minh rằng ở dưới dương gian con người ta sống với nhau rất có tình, đặc biệt là tình yêu luôn rất đẹp với các chư tiên nên đã xuống trần làm người phàm . Nhiệm vụ của Tế Công dưới dương gian là phải cảm hóa 3 người : 1 người đã chín kiếp làm ăn mày, 1 người thì đã chín kiếp làm ác nhân còn 1 người thì chín kiếp làm kỹ nữ để cho họ thay đổi bản chất mà số phận sắp đặt cho họ, nhưng anh lại không được dùng pháp lực… khiến cho rất nhiều những tình huống dở khóc dở cười đã diễn ra. Sau một hồi tranh luận căng go, La Hán Phục Hổ đánh cược với các vị tiên khác trên trời rằng sẽ cứu vãn được cuộc đời của một kỹ nữ, vốn đã chín kiếp làm gái lầu xanh và một tên ăn mày cũng đã làm cái bang chín kiếp được độ hóa. Để thực hiện việc này, Phục Hổ phải đầu thai xuống trần làm người thường, sau đó làm một hòa thượng ăn mày có tên Tế Điên – hay còn gọi là Tế Công… Liệu rằng anh chàng “người trần thế” Tế Công này có làm được những gì mà mình đã cược hay là anh đã sai lầm về những nhận định của mình và câu chuyện của anh với các nhân vật dưới trần gian sẽ đi đến đâu, có hay chăng một chuyện tình Tiên – Trần sẽ đến
    MEDIA INFO

    General
    Unique ID : 26552724096887193590616448685463666814 (0x13F9DE5F7976AFF6B28296E5AD69807E)
    Complete name : F:\The.Mad.Monk.1993.VIE.1080p.BluRay.FLAC.2.0.x264-WMD.mkv
    Format : Matroska
    Format version : Version 4
    File size : 7.68 GiB
    Duration : 1 h 28 min
    Overall bit rate mode : Variable
    Overall bit rate : 12.4 Mb/s
    Movie name : The.Mad.Monk.1993.1080p.BluRay.FLAC.2.0.x264-WMD
    Encoded date : UTC 2021-12-26 01:12:17
    Writing application : mkvmerge v63.0.0 ('Everything') 64-bit
    Writing library : libebml v1.4.2 + libmatroska v1.6.4

    Video
    ID : 1
    Format : AVC
    Format/Info : Advanced Video Codec
    Format profile : [email protected]
    Format settings : CABAC / 4 Ref Frames
    Format settings, CABAC : Yes
    Format settings, Reference frames : 4 frames
    Codec ID : V_MPEG4/ISO/AVC
    Duration : 1 h 28 min
    Bit rate : 11.9 Mb/s
    Width : 1 920 pixels
    Height : 1 032 pixels
    Display aspect ratio : 1.85:1
    Frame rate mode : Constant
    Frame rate : 24.000 FPS
    Color space : YUV
    Chroma subsampling : 4:2:0
    Bit depth : 8 bits
    Scan type : Progressive
    Bits/(Pixel*Frame) : 0.250
    Stream size : 7.36 GiB (96%)
    Title : The.Mad.Monk.1993.1080p.BluRay.FLAC.2.0.x264-WMD
    Writing library : x264 core 160 r3009 4c9b076
    Encoding settings : cabac=1 / ref=4 / deblock=1:-3:-3 / analyse=0x3:0x113 / me=umh / subme=10 / psy=1 / psy_rd=1.00:0.00 / mixed_ref=1 / me_range=32 / chroma_me=1 / trellis=2 / 8x8dct=1 / cqm=0 / deadzone=21,11 / fast_pskip=0 / chroma_qp_offset=-2 / threads=12 / lookahead_threads=1 / sliced_threads=0 / nr=0 / decimate=0 / interlaced=0 / bluray_compat=0 / constrained_intra=0 / bframes=16 / b_pyramid=2 / b_adapt=1 / b_bias=0 / direct=1 / weightb=1 / open_gop=0 / weightp=1 / keyint=250 / keyint_min=24 / scenecut=40 / intra_refresh=0 / rc=crf / mbtree=0 / crf=20.5 / qcomp=0.65 / qpmin=0 / qpmax=69 / qpstep=4 / ip_ratio=1.40 / pb_ratio=1.30 / aq=2:1.00
    Language : Chinese
    Default : Yes
    Forced : No

    Audio #1
    ID : 2
    Format : FLAC
    Format/Info : Free Lossless Audio Codec
    Codec ID : A_FLAC
    Duration : 1 h 28 min
    Bit rate mode : Variable
    Bit rate : 380 kb/s
    Channel(s) : 2 channels
    Channel layout : L R
    Sampling rate : 48.0 kHz
    Frame rate : 11.719 FPS (4096 SPF)
    Bit depth : 16 bits
    Compression mode : Lossless
    Stream size : 241 MiB (3%)
    Title : Cantonese
    Writing library : libFLAC 1.2.1 (UTC 2007-09-17)
    Language : Chinese
    Default : Yes
    Forced : No

    Audio #2
    ID : 3
    Format : MPEG Audio
    Format version : Version 1
    Format profile : Layer 3
    Codec ID : A_MPEG/L3
    Codec ID/Hint : MP3
    Duration : 1 h 28 min
    Bit rate mode : Constant
    Bit rate : 128 kb/s
    Channel(s) : 2 channels
    Sampling rate : 44.1 kHz
    Frame rate : 38.281 FPS (1152 SPF)
    Compression mode : Lossy
    Stream size : 81.3 MiB (1%)
    Title : USLT
    Language : Vietnamese
    Default : Yes
    Forced : Yes

    Text #1
    ID : 4
    Format : UTF-8
    Codec ID : S_TEXT/UTF8
    Codec ID/Info : UTF-8 Plain Text
    Duration : 1 h 24 min
    Bit rate : 70 b/s
    Count of elements : 1611
    Stream size : 44.0 KiB (0%)
    Language : English
    Default : Yes
    Forced : No

    Text #2
    ID : 5
    Format : UTF-8
    Codec ID : S_TEXT/UTF8
    Codec ID/Info : UTF-8 Plain Text
    Duration : 1 h 24 min
    Bit rate : 98 b/s
    Count of elements : 1586
    Stream size : 61.5 KiB (0%)
    Language : Vietnamese
    Default : No
    Forced : No

    Menu
    00:00:00.000 : en:Chapter 01
    00:07:27.292 : en:Chapter 02
    00:14:58.750 : en:Chapter 03
    00:22:17.000 : en:Chapter 04
    00:28:40.375 : en:Chapter 05
    00:35:48.958 : en:Chapter 06
    00:43:17.833 : en:Chapter 07
    00:50:15.792 : en:Chapter 08
    00:57:12.875 : en:Chapter 09
    01:06:59.250 : en:Chapter 10
    01:13:37.375 : en:Chapter 11
    01:21:24.792 : en:Chapter 12


    SCREEN
    [​IMG]
    [​IMG]
    [​IMG]
    [​IMG]
    [​IMG]
    [​IMG]
    [​IMG]

    lINK TẢI PHIM :
    Nhấn nút Cảm ơn (dưới chân bài) để thấy link!



     

Chia sẻ trang này