[Fshare] The Secret Life of Pets 2 2019 1080p WEB-DL H264 AC3-EVO

Thảo luận trong 'WEB-DL, HDTV' bắt đầu bởi Anh YAM, 13/8/19.

  1. Anh YAM

    Anh YAM Uploader

    Tham gia ngày:
    5/1/19
    Bài viết:
    9,300
    Đã được cảm ơn:
    173,624
    Giới tính:
    Nam
    The Secret Life of Pets 2 2019 1080p WEB-DL H264 AC3-EVO
    MKV | SIZE: 3.32 GB
    Đẳng cấp thú cưng 2
    Patton Oswalt, Kevin Hart, Harrison Ford

    [​IMG]

    [​IMG]

    Year: 2019

    [​IMG] 6.5//10
    Votes: 12,087
    Runtime: 1h 26min
    Language: English
    Country: USA
    All Genres: Animation, Adventure, Comedy
    Director: Chris Renaud, Jonathan del Val (co-director)
    Plot: Continuing the story of Max and his pet friends, following their secret lives after their owners leave them for work or school each day.

    Cast:
    Patton Oswalt, Kevin Hart, Harrison Ford


    ----------------------------------------
    Media Info

    General
    Unique ID : 229029662630006709103181908514677714960 (0xAC4D822FC19E3893845E44C6AF57F010)
    Format : Matroska
    Format version : Version 4
    File size : 3.32 GiB
    Duration : 1 h 26 min
    Overall bit rate : 5 523 kb/s
    Encoded date : UTC 2019-08-13 04:06:12
    Writing application : mkvmerge v6.7.0 ('Back to the Ground') 64bit built on Jan 8 2014 15:10:52
    Writing library : libebml v1.3.0 + libmatroska v1.4.1

    Video
    ID : 2
    Format : AVC
    Format/Info : Advanced Video Codec
    Format profile : [email protected]
    Format settings : CABAC / 4 Ref Frames
    Format settings, CABAC : Yes
    Format settings, Reference frames : 4 frames
    Codec ID : V_MPEG4/ISO/AVC
    Duration : 1 h 26 min
    Bit rate : 5 029 kb/s
    Width : 1 920 pixels
    Height : 1 036 pixels
    Display aspect ratio : 1.85:1
    Frame rate mode : Constant
    Frame rate : 23.976 (24000/1001) FPS
    Color space : YUV
    Chroma subsampling : 4:2:0
    Bit depth : 8 bits
    Scan type : Progressive
    Bits/(Pixel*Frame) : 0.105
    Stream size : 3.02 GiB (91%)
    Language : English
    Default : Yes
    Forced : No
    Color range : Limited
    Color primaries : BT.709
    Transfer characteristics : BT.709
    Matrix coefficients : BT.709

    Audio
    ID : 1
    Format : AC-3
    Format/Info : Audio Coding 3
    Commercial name : Dolby Digital
    Codec ID : A_AC3
    Duration : 1 h 26 min
    Bit rate mode : Constant
    Bit rate : 384 kb/s
    Channel(s) : 6 channels
    Channel layout : L R C LFE Ls Rs
    Sampling rate : 48.0 kHz
    Frame rate : 31.250 FPS (1536 SPF)
    Bit depth : 16 bits
    Compression mode : Lossy
    Stream size : 236 MiB (7%)
    Language : English
    Service kind : Complete Main
    Default : Yes
    Forced : No

    Menu
    00:00:00.000 : en:1
    00:05:35.543 : en:2
    00:10:08.816 : en:3
    00:13:27.306 : en:4
    00:16:40.791 : en:5
    00:19:57.946 : en:6
    00:24:11.073 : en:7
    00:28:16.735 : en:8
    00:30:55.267 : en:9
    00:35:16.110 : en:10
    00:39:56.974 : en:11
    00:45:48.325 : en:12
    00:49:52.819 : en:13
    00:56:55.991 : en:14
    00:58:36.215 : en:15
    01:02:49.927 : en:16
    01:07:17.611 : en:17
    01:12:49.818 : en:18
    01:15:22.803 : en:19
    01:18:11.011 : en:20
    ----------------------------------------

    Trailer


    [​IMG]

    [​IMG]

    [​IMG]

    Donwload
    FSHARE:
    Nhấn nút Cảm ơn (dưới chân bài) để thấy link!

    SUB: https://subscene.com/subtitles/the-secret-life-of-pets-2/vietnamese
     
    Chỉnh sửa cuối: 28/8/19
    concacom, ck3zw, Hoa Pham13 and 100 others like this.
  2. Anh YAM

    Anh YAM Uploader

    Tham gia ngày:
    5/1/19
    Bài viết:
    9,300
    Đã được cảm ơn:
    173,624
    Giới tính:
    Nam
    hiện chưa có việt sub chắc là phải đợi thêm ạ
     
    Ethanol and thanhlehoangcd like this.
  3. children09

    children09 Well-Known Member

    Tham gia ngày:
    13/4/10
    Bài viết:
    2,199
    Đã được cảm ơn:
    3,957
    Ráng chờ thêm vậy. Cảm ơn bạn
     
    thanhlehoangcd and Anh YAM like this.
  4. tcvuongtron

    tcvuongtron New Member

    Tham gia ngày:
    13/8/19
    Bài viết:
    3
    Đã được cảm ơn:
    1
    Giới tính:
    Nam
    Nghề nghiệp:
    120/33/6 Trường Chinh.P12.Tân Bình
    Nơi ở:
    ho chi minh city
    thanhlehoangcd cảm ơn bài này.
  5. nhamthin52

    nhamthin52 Well-Known Member

    Tham gia ngày:
    21/6/10
    Bài viết:
    456
    Đã được cảm ơn:
    303
    Giới tính:
    Nam
    Nơi ở:
    USA
    Thank you so much
     
  6. chickenmut

    chickenmut Member

    Tham gia ngày:
    30/8/10
    Bài viết:
    92
    Đã được cảm ơn:
    29
    có ròi kìa quất đi
     
    ioees cảm ơn bài này.
  7. lamrai

    lamrai Member

    Tham gia ngày:
    17/4/19
    Bài viết:
    42
    Đã được cảm ơn:
    13
    Giới tính:
    Nam
    có bản lồng tiếng ko anh chủ, con bé nhà mình thích lém
     
    ioees cảm ơn bài này.
  8. nguyen_vk

    nguyen_vk Member

    Tham gia ngày:
    26/10/10
    Bài viết:
    89
    Đã được cảm ơn:
    53
    Phim rõ, đẹp, phụ đề trên subscene khớp chuẩn.
    Cám ơn bác chủ nhiều.
     
    ioees cảm ơn bài này.
  9. ioees

    ioees New Member

    Tham gia ngày:
    16/10/17
    Bài viết:
    11
    Đã được cảm ơn:
    5
    Giới tính:
    Nam

Chia sẻ trang này