[FSHARE] Shark Night 3D 1080 DTS OU_LTDuc_Thuyết Minh

Thảo luận trong '3D' bắt đầu bởi laumam, 13/1/12.

  1. laumam

    laumam Well-Known Member

    Tham gia ngày:
    22/2/09
    Bài viết:
    1,763
    Đã được cảm ơn:
    2,024
    Shark Night 3D 1080 DTS OU_LTDuc_ThuyetMinh

    [​IMG]
    [​IMG]
    [​IMG]
    [​IMG]
    [​IMG]

    [​IMG]

    Mã:
    Format                                   : Matroska
    Format version                           : Version 2
    File size                                : 10.7 GiB
    Duration                                 : 1h 30mn
    Overall bit rate                         : 16.9 Mbps
    Movie name                               : LTDuc_3DRip
    Encoded date                             : UTC 2012-01-14 14:12:55
    Writing application                      : mkvmerge v5.0.1 ('Es ist Sommer') built on Oct  9 2011 11:55:43
    Writing library                          : libebml v1.2.2 + libmatroska v1.3.0
    
    
    
    Video
    ID                                       : 3
    Format                                   : AVC
    Format/Info                              : Advanced Video Codec
    Format profile                           : [email protected]
    Format settings, CABAC                   : Yes
    Format settings, ReFrames                : 2 frames
    Muxing mode                              : Header stripping
    Codec ID                                 : V_MPEG4/ISO/AVC
    Duration                                 : 1h 30mn
    Bit rate                                 : 14.4 Mbps
    Width                                    : 1 920 pixels
    Height                                   : 1 080 pixels
    Display aspect ratio                     : 16:9
    Frame rate                               : 23.976 fps
    Color space                              : YUV
    Chroma subsampling                       : 4:2:0
    Bit depth                                : 8 bits
    Scan type                                : Progressive
    Bits/(Pixel*Frame)                       : 0.289
    Stream size                              : 9.10 GiB (85%)
    Writing library                          : x264 core
    Color primaries                          : BT.709-5, BT.1361, IEC 61966-2-4, SMPTE RP177
    Transfer characteristics                 : BT.709-5, BT.1361
    Matrix coefficients                      : BT.709-5, BT.1361, IEC 61966-2-4 709, SMPTE RP177
    
    Audio #1
    ID                                       : 1
    Format                                   : DTS
    Format/Info                              : Digital Theater Systems
    Muxing mode                              : Header stripping
    Codec ID                                 : A_DTS
    Duration                                 : 1h 30mn
    Bit rate mode                            : Constant
    Bit rate                                 : 1 510 Kbps
    Channel(s)                               : 6 channels
    Channel positions                        : Front: L C R, Side: L R, LFE
    Sampling rate                            : 48.0 KHz
    Bit depth                                : 24 bits
    Compression mode                         : Lossy
    Stream size                              : 978 MiB (9%)
    Language                                 : Vietnamese
    
    Audio #2
    ID                                       : 2
    Format                                   : AC-3
    Format/Info                              : Audio Coding 3
    Mode extension                           : CM (complete main)
    Muxing mode                              : Header stripping
    Codec ID                                 : A_AC3
    Duration                                 : 1h 30mn
    Bit rate mode                            : Constant
    Bit rate                                 : 640 Kbps
    Channel(s)                               : 6 channels
    Channel positions                        : Front: L C R, Side: L R, LFE
    Sampling rate                            : 48.0 KHz
    Bit depth                                : 16 bits
    Compression mode                         : Lossy
    Stream size                              : 414 MiB (4%)
    Language                                 : English
    Nhấn nút Cảm ơn (dưới chân bài) để thấy link!
     
    Chỉnh sửa cuối: 14/1/12
  2. laumam

    laumam Well-Known Member

    Tham gia ngày:
    22/2/09
    Bài viết:
    1,763
    Đã được cảm ơn:
    2,024
    Ðề: [FSHARE] Shark Night 3D 1080 DTS OU_LTDuc_Thuyết Minh

    Đã up xong Shark Night 3D
     
  3. quocdung9017

    quocdung9017 New Member

    Tham gia ngày:
    21/3/11
    Bài viết:
    6
    Đã được cảm ơn:
    1
    Ðề: [FSHARE] Shark Night 3D 1080 DTS OU_LTDuc_Thuyết Minh

    TFS..Chờ từ hôm qua đến h..=D>
     
  4. hdd-hdp

    hdd-hdp New Member

    Tham gia ngày:
    28/2/11
    Bài viết:
    3,683
    Đã được cảm ơn:
    23
    Nghề nghiệp:
    Kinh Doanh
    Nơi ở:
    Ha Noi-Viet Nam
    Ðề: [FSHARE] Shark Night 3D 1080 DTS OU_LTDuc_Thuyết Minh

    Thank bác! Vụt luôn. Bản này chất nhất trong những bản 3D hiện có. :D
     
  5. supham

    supham Member

    Tham gia ngày:
    5/4/10
    Bài viết:
    326
    Đã được cảm ơn:
    1
    Ðề: [FSHARE] Shark Night 3D 1080 DTS OU_LTDuc_Thuyết Minh

    Có file Audio thuyết minh Tiếng Việt không bạn! Mình lỡ ddowwnload file 3D 7,18Ghi rồi! Cho mình xin với!X_X
     
  6. kienduc2010

    kienduc2010 New Member

    Tham gia ngày:
    10/8/09
    Bài viết:
    152
    Đã được cảm ơn:
    6
    Ðề: [FSHARE] Shark Night 3D 1080 DTS OU_LTDuc_Thuyết Minh

    Sẳn cho mình hỏi các bro lấy file audio từ đâu để mux vào film vậy :) ?
    Cám ơn
     
  7. laumam

    laumam Well-Known Member

    Tham gia ngày:
    22/2/09
    Bài viết:
    1,763
    Đã được cảm ơn:
    2,024
    Ðề: [FSHARE] Shark Night 3D 1080 DTS OU_LTDuc_Thuyết Minh

    chờ ngày mai mới up riêng cho bạn
    file audio lấy từ Hdvnbits
     
  8. supham

    supham Member

    Tham gia ngày:
    5/4/10
    Bài viết:
    326
    Đã được cảm ơn:
    1
    Ðề: [FSHARE] Shark Night 3D 1080 DTS OU_LTDuc_Thuyết Minh

    Bạn ui cho mình xin file thuyết minh với. Đang thiếu nó để xem, Hic hic. Cho link để down đi bạn
     
  9. chinh41089

    chinh41089 New Member

    Tham gia ngày:
    7/4/10
    Bài viết:
    19
    Đã được cảm ơn:
    1
    Ðề: [FSHARE] Shark Night 3D 1080 DTS OU_LTDuc_Thuyết Minh

    Bác lẩu nắm ơi.có thể share cho em cái file thuyết mình tiếng việt với dc ko bác
    thanks bác nhiều
     
  10. vodanh_qn

    vodanh_qn New Member

    Tham gia ngày:
    4/8/12
    Bài viết:
    7
    Đã được cảm ơn:
    1
    Ðề: [FSHARE] Shark Night 3D 1080 DTS OU_LTDuc_Thuyết Minh

    link die rồi ...
     

Chia sẻ trang này