[Fshare] [MV] Soobin Hoàng Sơn - Chuyến Đi Của Năm (Đi Để Trở Về 2) (1080p Web-DL FLAC AVC-NT)

Thảo luận trong 'Việt Nam' bắt đầu bởi tuandao2710, 20/3/18.

  1. tuandao2710

    tuandao2710 Active Member

    Tham gia ngày:
    1/9/17
    Bài viết:
    11
    Đã được cảm ơn:
    197
    Giới tính:
    Nam
    Nơi ở:
    Buôn Ma Thuột, Việt Nam
    Soobin Hoàng Sơn - Chuyến Đi Của Năm (Đi Để Trở Về 2) (1080p Web-DL FLAC AVC-NT)

    [​IMG] [​IMG] [​IMG] [​IMG] [​IMG] [​IMG] [​IMG]

    Mã:
    File name: Soobin Hoàng Sơn - Chuyến Đi Của Năm (Đi Để Trở Về 2) (1080p Web-DL FLAC AVC-NT).mkv
    Size: 100.75 MB
    
    
    	

    Video ID : 1 Format : AVC Format/Info : Advanced Video Codec Format profile : [email protected] Format settings : CABAC / 3 Ref Frames Format settings, CABAC : Yes Format settings, RefFrames : 3 frames Codec ID : V_MPEG4/ISO/AVC Duration : 5 min 8 s Bit rate : 1 872 kb/s Width : 1 920 pixels Height : 1 080 pixels Display aspect ratio : 16:9 Frame rate mode : Constant Frame rate : 24.000 FPS Color space : YUV Chroma subsampling : 4:2:0 Bit depth : 8 bits Scan type : Progressive Bits/(Pixel*Frame) : 0.038 Stream size : 68.8 MiB (68%) Default : Yes Forced : No Color range : Limited Color primaries : BT.709 Transfer characteristics : BT.709 Matrix coefficients : BT.709 Audio ID : 2 Format : FLAC Format/Info : Free Lossless Audio Codec Codec ID : A_FLAC Duration : 5 min 8 s Bit rate mode : Variable Bit rate : 869 kb/s Channel(s) : 2 channels Channel positions : Front: L R Sampling rate : 44.1 kHz Frame rate : 10.768 FPS (4095 SPF) Bit depth : 16 bits Stream size : 31.9 MiB (32%) Writing library : libFLAC 1.3.1 (UTC 2014-11-25) Default : Yes Forced : No
    Fshare:
    Nhấn nút Cảm ơn (dưới chân bài) để thấy link!
     
    Chỉnh sửa cuối: 13/5/18

Chia sẻ trang này