[FSHARE] Fright.Night.3D.2011.H-SBS.h264.1080p.Eng.DTS.3D4U(Real 3D)

Thảo luận trong '3D' bắt đầu bởi laumam, 7/12/11.

  1. laumam

    laumam Well-Known Member

    Tham gia ngày:
    22/2/09
    Bài viết:
    1,763
    Đã được cảm ơn:
    2,024
    [​IMG]

    Mã:
    General
    Unique ID                        : 240448630121398730936762007737185670839 (0xB4E4B8C0447AFBBFBB5DDE4C3AED16B7)
    Complete name                    : C:\Download\Fright.Night.3D.2011.H-SBS.h264.1080p.Eng.DTS.3D4U.The3DTeam.mkv
    
    
    	

    Format : Matroska

    Format version : Version 2 File size : 9.99 GiB Duration : 1h 45mn Overall bit rate : 13.5 Mbps Movie name : Fright Night 3D - 3D4U - The3DTeam.com Encoded date : UTC 2011-12-03 01:30:23 Writing application : mkvmerge v4.9.1 ('Ich will') built on Jul 11 2011 23:53:15 Writing library : libebml v1.2.1 + libmatroska v1.1.1 Video ID : 1 Format : AVC Format/Info : Advanced Video Codec Format profile : [email protected] Format settings, CABAC : Yes Format settings, ReFrames : 2 frames Codec ID : V_MPEG4/ISO/AVC Duration : 1h 45mn Bit rate : 11.7 Mbps Width : 1 920 pixels Height : 1 080 pixels Display aspect ratio : 16:9 Frame rate : 23.976 fps Color space : YUV Chroma subsampling : 4:2:0 Bit depth : 8 bits Scan type : Progressive Bits/(Pixel*Frame) : 0.236 Stream size : 8.68 GiB (87%) Writing library : x264 core Language : English Default : No Forced : No Color primaries : BT.709-5, BT.1361, IEC 61966-2-4, SMPTE RP177 Transfer characteristics : BT.709-5, BT.1361 Matrix coefficients : BT.709-5, BT.1361, IEC 61966-2-4 709, SMPTE RP177 Audio ID : 2 Format : DTS Format/Info : Digital Theater Systems Codec ID : A_DTS Duration : 1h 45mn Bit rate mode : Constant Bit rate : 1 510 Kbps Channel(s) : 6 channels Channel positions : Front: L C R, Side: L R, LFE Sampling rate : 48.0 KHz Bit depth : 24 bits Compression mode : Lossy Stream size : 1.12 GiB (11%) Language : English Default : Yes Forced : No
    1 Link 9.9 GB
    Nhấn nút Cảm ơn (dưới chân bài) để thấy link!


    Sub Việt
    Mã:
    http://subscene.com/Fright-Night/subtitles-89833.aspx
     
    Chỉnh sửa cuối: 8/12/11
    fsvnhd cảm ơn bài này.
  2. Transformer

    Transformer Member

    Tham gia ngày:
    26/10/09
    Bài viết:
    861
    Đã được cảm ơn:
    3
    Giới tính:
    Nam
    Nghề nghiệp:
    Hỗ trợ kỹ thuật
    Nơi ở:
    Long Biên
    Ðề: [FSHARE] Fright.Night.3D.2011.H-SBS.h264.1080p.Eng.DTS.3D4U(Real 3D)

    Kéo nào !!!!!!!!!!!!!!!! tks bác chủ thớt
     
  3. hungmh80

    hungmh80 Active Member

    Tham gia ngày:
    4/2/10
    Bài viết:
    3,584
    Đã được cảm ơn:
    23
    Nghề nghiệp:
    Nhân viên nhà nước
    Nơi ở:
    Việt Nam
    Ðề: [FSHARE] Fright.Night.3D.2011.H-SBS.h264.1080p.Eng.DTS.3D4U(Real 3D)

    Hàng 3D chuẩn đấy hả chủ thớt ơi ?
     
  4. laumam

    laumam Well-Known Member

    Tham gia ngày:
    22/2/09
    Bài viết:
    1,763
    Đã được cảm ơn:
    2,024
    Ðề: [FSHARE] Fright.Night.3D.2011.H-SBS.h264.1080p.Eng.DTS.3D4U(Real 3D)

    Real 3D chuẩn đó.............................................
     
  5. quocdung9017

    quocdung9017 New Member

    Tham gia ngày:
    21/3/11
    Bài viết:
    6
    Đã được cảm ơn:
    1
    Ðề: [FSHARE] Fright.Night.3D.2011.H-SBS.h264.1080p.Eng.DTS.3D4U(Real 3D)

    thanks nhieu nhieu......
     
  6. maiyeu2307

    maiyeu2307 Member

    Tham gia ngày:
    3/5/09
    Bài viết:
    190
    Đã được cảm ơn:
    4
    Ðề: [FSHARE] Fright.Night.3D.2011.H-SBS.h264.1080p.Eng.DTS.3D4U(Real 3D)

    Fright Night 2011 1080p SBS 3D BluRay DD5.1 x264-CtrlHD

    Mình đang chờ bản này ra hàng :D
     
  7. s4o0nljn2

    s4o0nljn2 Member

    Tham gia ngày:
    11/10/11
    Bài viết:
    291
    Đã được cảm ơn:
    6
    Nghề nghiệp:
    giáo viên
    Nơi ở:
    việt nam
    Ðề: [FSHARE] Fright.Night.3D.2011.H-SBS.h264.1080p.Eng.DTS.3D4U(Real 3D)

    cai nay la sbs ha bac
     
  8. laumam

    laumam Well-Known Member

    Tham gia ngày:
    22/2/09
    Bài viết:
    1,763
    Đã được cảm ơn:
    2,024
    Ðề: [FSHARE] Fright.Night.3D.2011.H-SBS.h264.1080p.Eng.DTS.3D4U(Real 3D)

    Là phim định dạng SIDE BY SIDE
     
  9. rezo00

    rezo00 New Member

    Tham gia ngày:
    17/10/11
    Bài viết:
    7
    Đã được cảm ơn:
    2
    Ðề: [FSHARE] Fright.Night.3D.2011.H-SBS.h264.1080p.Eng.DTS.3D4U(Real 3D)

    co ai up len MF or MU cho anh em voi!!!!!!!!!!????????????????????????????/
    Thank
     
  10. laumam

    laumam Well-Known Member

    Tham gia ngày:
    22/2/09
    Bài viết:
    1,763
    Đã được cảm ơn:
    2,024
    Ðề: [FSHARE] Fright.Night.3D.2011.H-SBS.h264.1080p.Eng.DTS.3D4U(Real 3D)

    Vào mục chia sẻ account mà tìm người share acc fshare nhé
     
  11. sanz451

    sanz451 New Member

    Tham gia ngày:
    24/4/11
    Bài viết:
    4
    Đã được cảm ơn:
    0
    Ðề: [FSHARE] Fright.Night.3D.2011.H-SBS.h264.1080p.Eng.DTS.3D4U(Real 3D)

    thank you
    very much
     
  12. K - J

    K - J Member

    Tham gia ngày:
    30/11/11
    Bài viết:
    55
    Đã được cảm ơn:
    1
    Ðề: [FSHARE] Fright.Night.3D.2011.H-SBS.h264.1080p.Eng.DTS.3D4U(Real 3D)

    phim của bác launam up thì yên tâm rồi. \:D/
    Kéo thôi.
     
  13. HD-Hitek EDS

    HD-Hitek EDS New Member

    Tham gia ngày:
    26/7/11
    Bài viết:
    28
    Đã được cảm ơn:
    9
    Ðề: [FSHARE] Fright.Night.3D.2011.H-SBS.h264.1080p.Eng.DTS.3D4U(Real 3D)

    hình như link die roi bac oi
     
  14. Babyboo

    Babyboo New Member

    Tham gia ngày:
    9/11/10
    Bài viết:
    4
    Đã được cảm ơn:
    0
    Ðề: [FSHARE] Fright.Night.3D.2011.H-SBS.h264.1080p.Eng.DTS.3D4U(Real 3D)

    ai up lai phim nay cho e voi link die roi
     

Chia sẻ trang này