[FSHARE] Bộ Sưu Tập 4K HDR 10bit x265 HEVC (Vietsub - Siêu Nhẹ - Siêu Nét)

Thảo luận trong '4K' bắt đầu bởi tremocoivo, 20/2/20.

  1. tremocoivo

    tremocoivo Well-Known Member

    Tham gia ngày:
    25/2/10
    Bài viết:
    1,676
    Đã được cảm ơn:
    54,405
    Giới tính:
    Nam
    Vẫn lên phim mới đó mà. Bạn cập nhật link folder ở #1 nhé.
     
    thelonghcm cảm ơn bài này.
  2. tremocoivo

    tremocoivo Well-Known Member

    Tham gia ngày:
    25/2/10
    Bài viết:
    1,676
    Đã được cảm ơn:
    54,405
    Giới tính:
    Nam

    Birds of Prey: Cuộc Lột Xác Huy Hoàng Của Harley Quinn (2020)
    Birds of Prey: And the Fantabulous Emancipation of One Harley Quinn 2020 2160p HDR10+ BluRay DD+ 7.1 x265 HEVC-PSA {Sub Việt Mux Sẵn}

    [​IMG]
    https://www.imdb.com/title/tt7713068

    Birds of Prey sẽ tiếp nối những sự kiện xảy ra trong Suicide Squad, khi Harley Quinn không còn phụ thuộc vào Joker và đang tìm đường hoàn lương. Giữa một thành phố Gotham hỗn loạn sau sự biến mất của người hùng bóng đêm Gotham, cô bé Cassandra Cain tìm thấy một viên kim cương vốn thuộc về gã ác nhân Black Mask và bị tên này bắt giữ. Khi đó, Harley Quinn đã tập hợp các nữ anh hùng để lên đường giải cứu Cassandra.

    SCREENSHOT
    [​IMG]
    DOWNLOAD
     
    kien1674, mtminh, voh5 and 71 others like this.
  3. tremocoivo

    tremocoivo Well-Known Member

    Tham gia ngày:
    25/2/10
    Bài viết:
    1,676
    Đã được cảm ơn:
    54,405
    Giới tính:
    Nam

    Kẻ Vô Hình (2020)
    The Invisible Man 2020 2160p HDR10+ BluRay TrueHD Atmos 7.1 x265 HEVC-PSA {Sub Việt Mux Sẵn}

    [​IMG]
    https://www.imdb.com/title/tt1051906

    Cecilia (Elisabeth Moss) – người đang trốn thoát khỏi sự tấn công của gã bạn trai tàn độc Adrian (Oliver Jackson-Cohen) nhờ sự trợ giúp của chị gái và người bạn thân. Sau khi bảo toàn mạng sống và tìm được nơi trú ẩn bình yên, cô bất ngờ được thông báo Adrian đã tự sát và để lại cho cô một khoản tiền kếch xù. Tuy nhiên, với linh cảm của mình, Cecilia không tin hắn đã chết. Cecilia thậm chí còn mạo hiểm tìm đến nhà cũ và bị tấn công thừa sống thiếu chết bởi một kẻ không thể nhìn thấy. Cũng kể từ đây, hàng loạt hiện tượng bí ẩn xảy ra, khiến cô hoang mang và bất an cực độ.

    SCREENSHOT
    [​IMG]
    DOWNLOAD
     
    Chỉnh sửa cuối: 22/2/22
  4. Cô độc

    Cô độc New Member

    Tham gia ngày:
    14/10/17
    Bài viết:
    12
    Đã được cảm ơn:
    5
    Giới tính:
    Nam
    cam on bac
     
  5. tremocoivo

    tremocoivo Well-Known Member

    Tham gia ngày:
    25/2/10
    Bài viết:
    1,676
    Đã được cảm ơn:
    54,405
    Giới tính:
    Nam

    Đại Chiến Thái Bình Dương (2013)
    Pacific Rim 2013 2160p 10bit HDR BluRay DTS 5.1 x265 HEVC-PSA {Sub Việt Mux Sẵn}

    [​IMG]
    https://www.imdb.com/title/tt2557478
    Một bộ phim hấp dẫn không thể bỏ qua khi con người phải chiến đấu chống lại những quái vật đến từ kẽ nứt của Thái Bình Dương mang tên gọi Kaiju. Chúng đang đe dọa hủy diệt thế giới loài người khi con người gần như thất bại hoàn toàn trước sức mạnh của lũ quái khổng lồ.
    Để tiêu diệt những sinh vật này, một loại vũ khí đặc biệt đã được chế tạo: Những robot khổng lồ, được gọi là Jeager. Được điều khiển đồng thời bởi hai phi công, tâm trí của họ được khóa lại trong một cầu nối thần kinh. Nhưng những robot này thậm chí vẫn không thể nào đối chọi lại được lũ quái vật kia.

    Mã:
    General
    Complete name  : Pacific.Rim.2013.2160p.10bit.HDR.BluRay.DTS5.1.x265.HEVC-PSA_Remuxed.mkv
    Format  : Matroska
    Format version  : Version 4
    File size  : 7.91 GiB
    Duration  : 2 h 11 min
    Overall bit rate  : 8 627 kb/s
    Movie name  : Pacific.Rim.2013.2160p.10bit.HDR.BluRay.DTS5.1.x265.HEVC-PSA
    Encoded date  : UTC 2020-06-13 00:15:02
    Writing application  : mkvmerge v45.0.0 ('Heaven in Pennies') 64-bit
    Writing library  : libebml v1.3.10 + libmatroska v1.5.2
    
    Video
    ID  : 3
    Format  : HEVC
    Format/Info  : High Efficiency Video Coding
    Format profile  : Main [email protected]@High
    HDR format  : SMPTE ST 2086, HDR10 compatible
    Codec ID  : V_MPEGH/ISO/HEVC
    Duration  : 2 h 11 min
    Bit rate  : 6 816 kb/s
    Width  : 3 840 pixels
    Height  : 2 160 pixels
    Display aspect ratio  : 16:9
    Frame rate mode  : Constant
    Frame rate  : 23.976 (24000/1001) FPS
    Color space  : YUV
    Chroma subsampling  : 4:2:0 (Type 2)
    Bit depth  : 10 bits
    Bits/(Pixel*Frame)  : 0.034
    Stream size  : 6.25 GiB (79%)
    Default  : Yes
    Forced  : No
    Color range  : Limited
    Color primaries  : BT.2020
    Transfer characteristics  : PQ
    Matrix coefficients  : BT.2020 non-constant
    Mastering display color pri : Display P3
    Mastering display luminance : min: 0.0050 cd/m2, max: 4000 cd/m2
    Maximum Content Light Level : 2465 cd/m2
    Maximum Frame-Average Light : 823 cd/m2
    
    Audio #1
    ID  : 2
    Format  : DTS
    Format/Info  : Digital Theater Systems
    Codec ID  : A_DTS
    Duration  : 2 h 11 min
    Bit rate mode  : Constant
    Bit rate  : 1 509 kb/s
    Channel(s)  : 6 channels
    Channel layout  : C L R Ls Rs LFE
    Sampling rate  : 48.0 kHz
    Frame rate  : 93.750 FPS (512 SPF)
    Bit depth  : 24 bits
    Compression mode  : Lossy
    Delay relative to video  : -200 ms
    Stream size  : 1.38 GiB (17%)
    Language  : English
    Default  : Yes
    Forced  : No
    
    Audio #2
    ID  : 4
    Format  : AAC LC SBR
    Format/Info  : Advanced Audio Codec Low Complexity with Spectral Band Replication
    Commercial name  : HE-AAC
    Format settings  : Explicit
    Codec ID  : A_AAC-2
    Duration  : 2 h 11 min
    Bit rate  : 299 kb/s
    Channel(s)  : 8 channels
    Channel layout  : C L R Ls Rs Lw Rw LFE
    Sampling rate  : 48.0 kHz
    Frame rate  : 23.438 FPS (2048 SPF)
    Compression mode  : Lossy
    Delay relative to video  : -169 ms
    Stream size  : 281 MiB (3%)
    Language  : English
    Default  : No
    Forced  : No
    
    Text #1
    ID  : 1
    Format  : UTF-8
    Codec ID  : S_TEXT/UTF8
    Codec ID/Info  : UTF-8 Plain Text
    Duration  : 2 h 1 min
    Bit rate  : 73 b/s
    Count of elements  : 1618
    Stream size  : 65.9 KiB (0%)
    Language  : Vietnamese
    Default  : Yes
    Forced  : No
    
    Text #2
    ID  : 5
    Format  : UTF-8
    Codec ID  : S_TEXT/UTF8
    Codec ID/Info  : UTF-8 Plain Text
    Duration  : 2 h 4 min
    Bit rate  : 55 b/s
    Count of elements  : 1622
    Stream size  : 50.9 KiB (0%)
    Language  : English
    Default  : No
    Forced  : No
    
    Menu
    00:00:00.000  : en:Chapter 1
    00:09:09.090  : en:Chapter 2
    00:18:35.781  : en:Chapter 3
    00:23:04.299  : en:Chapter 4
    00:33:00.353  : en:Chapter 5
    00:42:44.853  : en:Chapter 6
    00:50:01.623  : en:Chapter 7
    01:01:09.624  : en:Chapter 8
    01:14:45.063  : en:Chapter 9
    01:22:21.269  : en:Chapter 10
    01:32:09.899  : en:Chapter 11
    01:41:55.567  : en:Chapter 12
    01:51:37.816  : en:Chapter 13
    01:59:20.987  : en:Chapter 14
    02:02:17.788  : en:Chapter 15
    
    SCREENSHOT
    [​IMG]
    DOWNLOAD
     
  6. congnghenano

    congnghenano Active Member

    Tham gia ngày:
    31/7/14
    Bài viết:
    184
    Đã được cảm ơn:
    133
    Cám ơn bạn vì bộ sưu tập chất lượng mà dung lượng nhỏ rất tiện cho việc lưu trữ, chỉ xin bạn một điều là cố gắng mux được audio gốc của bluray (truehd 7.1, dts hdma 7.1...) thì quá tốt. Cám ơn bạn nhiều nhé.
     
    thelonghcm and tremocoivo like this.
  7. lonelyboynt145

    lonelyboynt145 Active Member

    Tham gia ngày:
    12/1/10
    Bài viết:
    75
    Đã được cảm ơn:
    55
    Em hỏi ngu phát file 4k mà nó nhẹ vậy thì nó có gì khác so với mấy file 4k mà nặng 60 70GB? Nhờ thông não giúp em
     
    thelonghcm cảm ơn bài này.
  8. Mill HD

    Mill HD Well-Known Member

    Tham gia ngày:
    24/3/12
    Bài viết:
    146
    Đã được cảm ơn:
    1,960
    Giới tính:
    Nam
    Tui ngưỡng mộ PSA đã lâu, chỉ là download torrent phải qua 1 2 cái trang quảng cáo lằng nhằng. giờ gặp nguyên cái topic luôn :D kéo về thôi. Thanks thread!
     
  9. tremocoivo

    tremocoivo Well-Known Member

    Tham gia ngày:
    25/2/10
    Bài viết:
    1,676
    Đã được cảm ơn:
    54,405
    Giới tính:
    Nam
    Lại có sẵn Vietsub kèm Audio ngon nữa, tiếc gì không kéo bác nhẩy :D
     
    huynhtai52014, thelonghcm and Mill HD like this.
  10. tremocoivo

    tremocoivo Well-Known Member

    Tham gia ngày:
    25/2/10
    Bài viết:
    1,676
    Đã được cảm ơn:
    54,405
    Giới tính:
    Nam
    Mình cố gắng mux những gì nhẹ nhất mà vẫn đảm bảo chất lượng, audio gốc thì quá nặng,có khi còn nặng hơn cả file video nên phù hợp với 4K remux, 4K gốc thôi. Tiêu chí Siêu nhẹ - Siêu nét đặt lên hàng đầu mà.
     
  11. tremocoivo

    tremocoivo Well-Known Member

    Tham gia ngày:
    25/2/10
    Bài viết:
    1,676
    Đã được cảm ơn:
    54,405
    Giới tính:
    Nam
    Tất nhiên sẽ có khác biệt nhiều chứ, nhưng với tiêu chí Siêu nhẹ - Siêu nét thì bản 4K x265 này phù hợp với những bạn muốn xem 4K HDR nhưng lưu trữ có giới hạn, chất lượng thì có thể tải về rồi so sánh thôi bác.
     
    thelonghcm, lonelyboynt145 and HDFF like this.
  12. Mill HD

    Mill HD Well-Known Member

    Tham gia ngày:
    24/3/12
    Bài viết:
    146
    Đã được cảm ơn:
    1,960
    Giới tính:
    Nam
    4K gốc từ 50GB trở lên thì mỗi khung hình của nó đều có chất lượng cao, chi tiết sắc sảo hơn vượt qua thị lực của người xem, có nén thì cũng rất ít.
    Còn bản nhẹ thì các khung hình tham chiếu lẫn nhau rất nhiều, nhiều thuật toán bên trong để phân tích và nén từng khung hình, vì thế đòi hỏi phần cứng xử lý nhiều hơn để xem 4K. Chất lượng có suy giảm, suy giảm nhiều hay ít phụ thuộc vào nhóm encode họ tùy chọn như thế nào.
    PSA thì yên tâm mà kéo, chất lượng chắc tầm 95% trở lên đó :D
     
  13. HDFF

    HDFF Active Member

    Tham gia ngày:
    12/9/10
    Bài viết:
    220
    Đã được cảm ơn:
    94
    Bác có bộ The Lord of the Rings không ạ?
    Em hóng bộ này để sưu tập nữa
     
    thelonghcm cảm ơn bài này.
  14. tremocoivo

    tremocoivo Well-Known Member

    Tham gia ngày:
    25/2/10
    Bài viết:
    1,676
    Đã được cảm ơn:
    54,405
    Giới tính:
    Nam

    Hố Đen Tử Thần (2014)
    Interstellar 2014 IMAX 2160p 10bit HDR BluRay DTS-HD MA 5.1 x265 HEVC-PSA {Sub Việt Mux Sẵn}

    [​IMG]
    https://www.imdb.com/title/tt0816692

    Hố đen tử thần (tựa gốc: Interstellar) là một bộ phim khoa học viễn tưởng (phát hành tháng 11/2014) đạo diễn bởi Christopher Nolan. Với dàn diễn viên hùng hậu gồm Matthew McConaughey, Anne Hathaway, Jessica Chastain, Bill Irwin, Ellen Burstyn và Michael Caine, bộ phim kể về một nhóm nhà du hành vũ trụ đi xuyên qua hố đen. Nolan đã phát triển kịch bản phim dựa trên những ý tưởng mới của mình hòa trộn với kịch bản trước đó do anh trai Jonathan Nolan viết năm 2007 cho Paramount Pictures và nhà sản xuất Lynda Obst. Bộ phim được sản xuất bởi Nolan, Emma Thomas và Lynda Obst.

    Mã:
    General
    Complete name  : Interstellar.2014.IMAX.2160p.10bit.HDR.BluRay.DTS-HDMA5.1.x265.HEVC-PSA_Remuxed.mkv
    Format  : Matroska
    Format version  : Version 4
    File size  : 10.1 GiB
    Duration  : 2 h 49 min
    Overall bit rate mode  : Variable
    Overall bit rate  : 8 559 kb/s
    Movie name  : PSArips.com | Interstellar.2014.IMAX.2160p.10bit.HDR.BluRay.6CH.x265.HEVC-PSA
    Encoded date  : UTC 2020-07-11 18:11:43
    Writing application  : mkvmerge v45.0.0 ('Heaven in Pennies') 64-bit
    Writing library  : libebml v1.3.10 + libmatroska v1.5.2
    
    Video
    ID  : 2
    Format  : HEVC
    Format/Info  : High Efficiency Video Coding
    Format profile  : Main [email protected]@High
    HDR format  : SMPTE ST 2086, HDR10 compatible
    Codec ID  : V_MPEGH/ISO/HEVC
    Duration  : 2 h 49 min
    Bit rate  : 4 679 kb/s
    Width  : 3 840 pixels
    Height  : 2 160 pixels
    Display aspect ratio  : 16:9
    Frame rate mode  : Constant
    Frame rate  : 23.976 (24000/1001) FPS
    Color space  : YUV
    Chroma subsampling  : 4:2:0 (Type 2)
    Bit depth  : 10 bits
    Bits/(Pixel*Frame)  : 0.024
    Stream size  : 5.53 GiB (55%)
    Default  : Yes
    Forced  : No
    Color range  : Limited
    Color primaries  : BT.2020
    Transfer characteristics  : PQ
    Matrix coefficients  : BT.2020 non-constant
    Mastering display color pri : Display P3
    Mastering display luminance : min: 0.0050 cd/m2, max: 4000 cd/m2
    Maximum Content Light Level : 1242 cd/m2
    Maximum Frame-Average Light : 436 cd/m2
    
    Audio #1
    ID  : 1
    Format  : DTS XLL
    Format/Info  : Digital Theater Systems
    Commercial name  : DTS-HD Master Audio
    Codec ID  : A_DTS
    Duration  : 2 h 49 min
    Bit rate mode  : Variable
    Bit rate  : 3 686 kb/s
    Channel(s)  : 6 channels
    Channel layout  : C L R Ls Rs LFE
    Sampling rate  : 48.0 kHz
    Frame rate  : 93.750 FPS (512 SPF)
    Bit depth  : 24 bits
    Compression mode  : Lossless
    Stream size  : 4.35 GiB (43%)
    Language  : English
    Default  : Yes
    Forced  : No
    
    Audio #2
    ID  : 3
    Format  : AAC LC SBR
    Format/Info  : Advanced Audio Codec Low Complexity with Spectral Band Replication
    Commercial name  : HE-AAC
    Format settings  : Explicit
    Codec ID  : A_AAC-2
    Duration  : 2 h 49 min
    Bit rate  : 192 kb/s
    Channel(s)  : 6 channels
    Channel layout  : C L R Ls Rs LFE
    Sampling rate  : 48.0 kHz
    Frame rate  : 23.438 FPS (2048 SPF)
    Compression mode  : Lossy
    Delay relative to video  : 23 ms
    Stream size  : 230 MiB (2%)
    Language  : English
    Default  : No
    Forced  : No
    
    Text #1
    ID  : 4
    Format  : UTF-8
    Codec ID  : S_TEXT/UTF8
    Codec ID/Info  : UTF-8 Plain Text
    Duration  : 2 h 42 min
    Bit rate  : 56 b/s
    Count of elements  : 1989
    Stream size  : 67.0 KiB (0%)
    Language  : English
    Default  : No
    Forced  : No
    
    Text #2
    ID  : 5
    Format  : UTF-8
    Codec ID  : S_TEXT/UTF8
    Codec ID/Info  : UTF-8 Plain Text
    Duration  : 2 h 42 min
    Bit rate  : 59 b/s
    Count of elements  : 2096
    Stream size  : 70.8 KiB (0%)
    Title  : SDH
    Language  : English
    Default  : No
    Forced  : No
    
    Text #3
    ID  : 6
    Format  : UTF-8
    Codec ID  : S_TEXT/UTF8
    Codec ID/Info  : UTF-8 Plain Text
    Duration  : 2 h 43 min
    Bit rate  : 73 b/s
    Count of elements  : 1989
    Stream size  : 88.1 KiB (0%)
    Language  : Vietnamese
    Default  : Yes
    Forced  : No
    
    Menu
    00:00:00.000  : :Chapter 1
    00:09:35.800  : :Chapter 2
    00:17:12.600  : :Chapter 3
    00:25:01.000  : :Chapter 4
    00:35:45.600  : :Chapter 5
    00:42:17.000  : :Chapter 6
    00:50:20.000  : :Chapter 7
    00:54:48.400  : :Chapter 8
    00:59:00.000  : :Chapter 9
    01:06:15.200  : :Chapter 10
    01:17:28.400  : :Chapter 11
    01:25:32.200  : :Chapter 12
    01:34:32.200  : :Chapter 13
    01:46:15.000  : :Chapter 14
    01:55:34.600  : :Chapter 15
    02:02:14.400  : :Chapter 16
    02:12:57.200  : :Chapter 17
    02:20:54.000  : :Chapter 18
    02:35:12.400  : :Chapter 19
    02:44:00.000  : :Chapter 20
    
    SCREENSHOT
    [​IMG]
    DOWNLOAD
     
  15. Trung 98888888123

    Trung 98888888123 New Member

    Tham gia ngày:
    11/4/20
    Bài viết:
    21
    Đã được cảm ơn:
    15
    Ok
     
    Chỉnh sửa cuối: 21/7/20
  16. dynastywarry

    dynastywarry Member

    Tham gia ngày:
    4/9/10
    Bài viết:
    37
    Đã được cảm ơn:
    0
    xem trên tv lg toàn bị lỗi fond chữ ko bạn ơi
     
  17. lovehd

    lovehd Well-Known Member

    Tham gia ngày:
    11/1/09
    Bài viết:
    570
    Đã được cảm ơn:
    289
    Với mình thì âm thanh nhiều khi còn quan trọng hơn hình ảnh: video thì cứ trên FHD là ngon, còn âm thanh thì càng gần gốc, càng nhiều kênh càng tốt. Nên mình down file 4K HEVC cho nhẹ nhưng rồi lại tìm file audio gốc down riêng về để mux vào nghe cho sướng. Giá mà bác kèm riêng thêm file âm thanh gốc để ai có nhu cầu thì down riêng, đỡ phải lo down chỗ khác về không khớp với video. @tremocoivo
     
  18. bokinhvan113304

    bokinhvan113304 Well-Known Member

    Tham gia ngày:
    17/11/14
    Bài viết:
    387
    Đã được cảm ơn:
    273
    có kèm thuyết mình thì tuyệt, sao k thêm thuyết mình vào phim vậy bác
     
  19. tremocoivo

    tremocoivo Well-Known Member

    Tham gia ngày:
    25/2/10
    Bài viết:
    1,676
    Đã được cảm ơn:
    54,405
    Giới tính:
    Nam
    File sub srt thì nếu lỗi sẽ lỗi tất cả film bác ạ. Do TV thôi.
     
    thelonghcm cảm ơn bài này.
  20. tremocoivo

    tremocoivo Well-Known Member

    Tham gia ngày:
    25/2/10
    Bài viết:
    1,676
    Đã được cảm ơn:
    54,405
    Giới tính:
    Nam
    Với tiêu chí "Ngon - Bổ - Rẻ" nếu mux audio gốc vào thì file sẽ rất nặng, mình toàn lấy audio từ bản encode 1080p qua hoặc nếu film nào hot thì ráng kiếm audio từ REMUX để đưa vào.
     
    thelonghcm and lovehd like this.

Chia sẻ trang này