[Fshare] Đông Thành Tây Tựu ''The Eagle Shooting Heroes'' 1993 Bluray 1080p REMUX AVC DTS-HD MA 5.1-LLZ-USLT

Thảo luận trong 'Phim có audio Việt' bắt đầu bởi neoquiller, 28/2/21.

  1. neoquiller

    neoquiller Well-Known Member

    Tham gia ngày:
    3/9/09
    Bài viết:
    471
    Đã được cảm ơn:
    6,049
    Giới tính:
    Nam
    Đông Thành Tây Tựu
    The Eagle Shooting Heroes 1993

    ***LỒNG TIẾNG CHUẨN***
    Diễn viên:

    Lương Triều Vĩ, Trương Quốc Vinh, Trương Mạn Ngọc, Trương Học Hữu, Lâm Thanh Hà, Lương Gia Huy, Vương Tổ Hiền, Lưu Gia Linh, Diệp Ngọc Khanh, Chung Trấn Đào[​IMG][​IMG]
    Thông tin file:
    Complete name : F:\Đông Thành Tây Tựu ''The Eagle Shooting Heroes'' 1993 Bluray 1080p REMUX AVC DTS-HD MA 5.1-LLZ-USLT.mkv

    Format : Matroska

    File size : 16.0 GiB
    Duration : 1 h 42 min
    Overall bit rate : 22.2 Mb/s
    Encoded date : UTC 2021-02-27 16:52:49
    Video
    ID : 1
    Format : AVC
    Format/Info : Advanced Video Codec
    Format profile : [email protected]
    Format settings : CABAC / 4 Ref Frames
    Format settings, CABAC : Yes
    Format settings, Reference frames : 4 frames
    Codec ID : V_MPEG4/ISO/AVC
    Duration : 1 h 42 min
    Bit rate : 20.0 Mb/s
    Maximum bit rate : 40.0 Mb/s
    Width : 1 920 pixels
    Height : 1 080 pixels
    Display aspect ratio : 16:9
    Frame rate mode : Constant
    Frame rate : 23.976 (24000/1001) FPS
    Standard : NTSC
    Color space : YUV
    Chroma subsampling : 4:2:0
    Bit depth : 8 bits
    Scan type : Progressive
    Bits/(Pixel*Frame) : 0.402
    Stream size : 14.4 GiB (90%)
    Title : Remux Neoquiller
    Default : Yes
    Forced : No
    Audio #1
    ID : 2
    Format : AC-3
    Format/Info : Audio Coding 3
    Commercial name : Dolby Digital
    Codec ID : A_AC3
    Duration : 1 h 42 min
    Bit rate mode : Constant
    Bit rate : 192 kb/s
    Channel(s) : 2 channels
    Channel layout : L R
    Sampling rate : 48.0 kHz
    Frame rate : 31.250 FPS (1536 SPF)
    Compression mode : Lossy
    Stream size : 141 MiB (1%)
    Language : Vietnamese
    Service kind : Complete Main
    Default : Yes
    Forced : No
    Audio #2
    ID : 3
    Format : DTS XLL
    Format/Info : Digital Theater Systems
    Commercial name : DTS-HD Master Audio
    Codec ID : A_DTS
    Duration : 1 h 42 min
    Bit rate mode : Variable
    Bit rate : 2 023 kb/s
    Channel(s) : 6 channels
    Channel layout : C L R Ls Rs LFE
    Sampling rate : 48.0 kHz
    Frame rate : 93.750 FPS (512 SPF)
    Bit depth : 16 bits
    Compression mode : Lossless
    Stream size : 1.46 GiB (9%)
    Language : Chinese
    Default : No

    Forced : No
    Link lên rồi A/E chiến thôi
    pass tải file: neoquiller
    Cuối tuần có phim hay xem giải trí nha!

    Nhấn nút Cảm ơn (dưới chân bài) để thấy link!
     
    Chỉnh sửa cuối: 1/3/21
  2. neoquiller

    neoquiller Well-Known Member

    Tham gia ngày:
    3/9/09
    Bài viết:
    471
    Đã được cảm ơn:
    6,049
    Giới tính:
    Nam
    Bộ Đông Thành Tây Tựu ''The Eagle Shooting Heroes'' 1993 BluRay 1080p này, Audio USLT đã được mình mux khớp chuẩn! Thank you bác tuankbas chia sẽ bộ phim này.
     
  3. garunggp

    garunggp Well-Known Member

    Tham gia ngày:
    9/11/11
    Bài viết:
    261
    Đã được cảm ơn:
    2,015
    hóng link
     
  4. Windows 8

    Windows 8 Well-Known Member

    Tham gia ngày:
    30/6/13
    Bài viết:
    937
    Đã được cảm ơn:
    890
    Phim gì toàn thánh đóng không vậy :( kéo thôi :((
     
  5. tieuphong96

    tieuphong96 Member

    Tham gia ngày:
    14/9/12
    Bài viết:
    82
    Đã được cảm ơn:
    42
    THANKS
     
  6. nghiad14

    nghiad14 Active Member

    Tham gia ngày:
    14/11/10
    Bài viết:
    191
    Đã được cảm ơn:
    136
    Nghề nghiệp:
    sinh vien
    Nơi ở:
    Viet Nam
    phim hài lắm
     
  7. chungthienan197

    chungthienan197 New Member

    Tham gia ngày:
    15/8/12
    Bài viết:
    13
    Đã được cảm ơn:
    0
    thanks!Hy vọng có audio cantonese
     
  8. dangcuong10101988

    dangcuong10101988 New Member

    Tham gia ngày:
    25/7/21
    Bài viết:
    4
    Đã được cảm ơn:
    0
  9. Whiskey

    Whiskey Well-Known Member

    Tham gia ngày:
    2/8/09
    Bài viết:
    219
    Đã được cảm ơn:
    283
    Phim hay hài hước, cám ơn bạn chia sẽ bản đẹp có USLT
     
  10. Jellkeen

    Jellkeen Well-Known Member

    Tham gia ngày:
    24/2/13
    Bài viết:
    3,053
    Đã được cảm ơn:
    4,844
    Giới tính:
    Nam
    Nghề nghiệp:
    Vô Định
    Nơi ở:
    Vô Gia Cư
    Cảm ơn, mình rất thích phim này.
     

Chia sẻ trang này