[Fshare] Conan, Cậu Bé Tương Lai (Thuyết minh) | Future Boy Conan 1978 BluRay VIE 1080p x264 DD 2.0 - HDC

Thảo luận trong 'Phim hoạt hình' bắt đầu bởi ngocyen, 15/5/16.

  1. ngocyen

    ngocyen Well-Known Member

    Tham gia ngày:
    29/10/12
    Bài viết:
    38
    Đã được cảm ơn:
    499

    Conan, Cậu Bé Tương Lai
    Future Boy Conan

    Đạo diễn: Hayao Miyazaki
    IMDB: 8.9/10


    [​IMG]



    Phim gồm 26 tập, được gộp thành 5 tập tin MKV cho tiện theo dõi. Mỗi tập tin đều có chapter cho từng tập để bấm nhảy tập dễ dàng.

    [​IMG]
    [​IMG]
    [​IMG]

    Mã:
    General
    Unique ID                                : 185997976459650438725528255561643215796 (0x8BEDE841448D458BBA2C471B24524BB4)
    Complete name                            : \\BIGGEM\Movies\Cartoons\Action\1978 ★★★ Future Boy Conan 1.mkv
    Format                                   : Matroska
    Format version                           : Version 4 / Version 2
    File size                                : 4.56 GiB
    Duration                                 : 2h 25mn
    Overall bit rate                         : 4 501 Kbps
    Movie name                               : Future Boy Conan
    Encoded date                             : UTC 2016-05-13 23:46:38
    Writing application                      : mkvmerge v9.1.0 ('Little Earthquakes') 64bit
    Writing library                          : libebml v1.3.3 + libmatroska v1.4.4
    Video
    ID                                       : 1
    Format                                   : AVC
    Format/Info                              : Advanced Video Codec
    Format profile                           : [email protected]
    Format settings, CABAC                   : Yes
    Format settings, ReFrames                : 3 frames
    Codec ID                                 : V_MPEG4/ISO/AVC
    Duration                                 : 2h 25mn
    Bit rate                                 : 3 923 Kbps
    Width                                    : 1 920 pixels
    Height                                   : 1 080 pixels
    Display aspect ratio                     : 16:9
    Frame rate mode                          : Constant
    Frame rate                               : 23.976 (23976/1000) fps
    Original frame rate                      : 29.970 (30000/1001) fps
    Color space                              : YUV
    Chroma subsampling                       : 4:2:0
    Bit depth                                : 8 bits
    Scan type                                : Progressive
    Bits/(Pixel*Frame)                       : 0.079
    Stream size                              : 3.98 GiB (87%)
    Writing library                          : x264 core 76 r1271 496d79d
    Encoding settings                        : cabac=1 / ref=3 / deblock=1:0:0 / analyse=0x3:0x113 / me=tesa / subme=9 / psy=1 / psy_rd=1.0:0.0 / mixed_ref=1 / me_range=32 / chroma_me=1 / trellis=1 / 8x8dct=1 / cqm=0 / deadzone=21,11 / chroma_qp_offset=-2 / threads=12 / nr=0 / decimate=1 / mbaff=0 / bframes=3 / b_pyramid=0 / b_adapt=2 / b_bias=0 / direct=3 / wpredb=1 / keyint=250 / keyint_min=25 / scenecut=55 / rc_lookahead=30 / rc=crf / mbtree=1 / crf=21.0 / qcomp=0.60 / qpmin=1 / qpmax=51 / qpstep=20 / ip_ratio=1.40 / aq=1:0.00
    Language                                 : Japanese
    Default                                  : Yes
    Forced                                   : No
    Audio #1
    ID                                       : 2
    Format                                   : AC-3
    Format/Info                              : Audio Coding 3
    Mode extension                           : CM (complete main)
    Format settings, Endianness              : Big
    Codec ID                                 : A_AC3
    Duration                                 : 2h 25mn
    Bit rate mode                            : Constant
    Bit rate                                 : 384 Kbps
    Channel(s)                               : 2 channels
    Channel positions                        : Front: L R
    Sampling rate                            : 48.0 KHz
    Frame rate                               : 31.250 fps (1536 spf)
    Compression mode                         : Lossy
    Stream size                              : 399 MiB (9%)
    Title                                    : Vietnamese
    Language                                 : Vietnamese
    Default                                  : Yes
    Forced                                   : No
    Audio #2
    ID                                       : 3
    Format                                   : AC-3
    Format/Info                              : Audio Coding 3
    Mode extension                           : CM (complete main)
    Format settings, Endianness              : Big
    Codec ID                                 : A_AC3
    Duration                                 : 2h 25mn
    Bit rate mode                            : Constant
    Bit rate                                 : 192 Kbps
    Channel(s)                               : 1 channel
    Channel positions                        : Front: C
    Sampling rate                            : 48.0 KHz
    Frame rate                               : 31.250 fps (1536 spf)
    Compression mode                         : Lossy
    Stream size                              : 199 MiB (4%)
    Title                                    : Japanese
    Language                                 : Japanese
    Default                                  : No
    Forced                                   : No
    Text #1
    ID                                       : 4
    Format                                   : UTF-8
    Codec ID                                 : S_TEXT/UTF8
    Codec ID/Info                            : UTF-8 Plain Text
    Duration                                 : 2h 24mn
    Bit rate                                 : 43 bps
    Count of elements                        : 1032
    Stream size                              : 46.5 KiB (0%)
    Title                                    : Vietnamese
    Language                                 : Vietnamese
    Default                                  : No
    Forced                                   : No
    Text #2
    ID                                       : 5
    Format                                   : UTF-8
    Codec ID                                 : S_TEXT/UTF8
    Codec ID/Info                            : UTF-8 Plain Text
    Duration                                 : 2h 24mn
    Bit rate                                 : 34 bps
    Count of elements                        : 1188
    Stream size                              : 36.6 KiB (0%)
    Title                                    : English
    Language                                 : English
    Default                                  : No
    Forced                                   : No
    Menu
    00:00:00.000                             : en:Episode 1: Survivors of a Lost Island - vi:Tập 1: Đảo Hy Vọng
    00:31:44.000                             : en:Episode 2: The Journey - vi:Tập 2: Cuộc hành trình
    01:00:46.000                             : en:Episode 3: The First Friend - vi:Tập 3: Người bạn đầu tiên
    01:29:50.000                             : en:Episode 4: The Barracuda - vi:Tập 4: Tàu Barracuda
    01:58:52.000                             : en:Episode 5: Industria - vi:Tập 5: Khu Công Nghiệp
     
    Chỉnh sửa cuối: 31/1/18
    ngo1984, LeeKunHee, tinhyeu44 and 6 others like this.
  2. nthone

    nthone Active Member

    Tham gia ngày:
    30/6/13
    Bài viết:
    108
    Đã được cảm ơn:
    98
    ÔI VTV thuyết minh, nhớ hồi 2001 quá :D
     
  3. datsatthune

    datsatthune Active Member

    Tham gia ngày:
    2/8/10
    Bài viết:
    153
    Đã được cảm ơn:
    41
    Ðề: Conan, Cậu Bé Tương Lai (VTV thuyết minh) | Future Boy Conan 1978 BluRay VIE 1080p x264 DD 2.0 - HDCLUB

    Đánh dấu phát, tuổi thơ ùa về với độ phân giải 1080p =))
    Cơ mà nếu có bản encode mHD cho nhẹ thì tuyệt hơn, tại phim quá cũ nên bluray cũng chả nét mấy
     
  4. pionguyen

    pionguyen Member

    Tham gia ngày:
    10/11/09
    Bài viết:
    122
    Đã được cảm ơn:
    13
    Ðề: Conan, Cậu Bé Tương Lai (VTV thuyết minh) | Future Boy Conan 1978 BluRay VIE 1080p x264 DD 2.0 - HDCLUB

    Quá Hay! Cám ơn bạn. Phải nói đây là bộ phim hoạt hình ý nghĩa nhất mang đậm tính nhân văn. Nó bỏ qua ranh giới giữa phim cho người lớn và trẻ nhỏ, tác động tích cực đến mọi lứa tuổi cũng như đưa thông điệp đến tất cả nhân loại hiện nay và mai sau.

    P/S: Phim nay mình xem từ 1998 hồi còn băng video, thuyết minh giọng nữ người miền Nam nghe ngộ nghĩnh và đáng yêu hơn
     
  5. talamonka

    talamonka Well-Known Member

    Tham gia ngày:
    4/10/15
    Bài viết:
    37
    Đã được cảm ơn:
    904
    Ðề: Conan, Cậu Bé Tương Lai (VTV thuyết minh) | Future Boy Conan 1978 BluRay VIE 1080p x264 DD 2.0 - HDCLUB

    Tks bạn đã share bộ conan này :)
     
  6. ngocyen

    ngocyen Well-Known Member

    Tham gia ngày:
    29/10/12
    Bài viết:
    38
    Đã được cảm ơn:
    499
    Đã up lại các tập bị xóa...
     
    cantoon cảm ơn bài này.
  7. cantoon

    cantoon Well-Known Member

    Tham gia ngày:
    29/12/12
    Bài viết:
    822
    Đã được cảm ơn:
    10,952
    Bộ sưu tập quá khủng! Cảm ơn Bác nhiều.
    Kéo về cho mấy đứa cháu xem.:D
     
  8. trungdzu

    trungdzu Active Member

    Tham gia ngày:
    25/9/11
    Bài viết:
    386
    Đã được cảm ơn:
    84
    Bộ sưu tập quá khủng! Cảm ơn Bác nhiều.
     
  9. kientuyet3

    kientuyet3 New Member

    Tham gia ngày:
    16/11/11
    Bài viết:
    24
    Đã được cảm ơn:
    1
    bác có bộ taiga adventure không? ngày xưa cũng chiếu trên vtv, tên tiếng việt là đi tìm cổ vật. kể về thằng bé cùng bố truy tìm cổ vật, trong đấy có cả con đại bàng đá.
     
  10. lamtam123

    lamtam123 Well-Known Member

    Tham gia ngày:
    15/1/16
    Bài viết:
    306
    Đã được cảm ơn:
    2,635
    Có ai reup hộ với
     
  11. Thinhplust

    Thinhplust New Member

    Tham gia ngày:
    13/8/19
    Bài viết:
    9
    Đã được cảm ơn:
    4
    Giới tính:
    Nam
    ai có cho xin lại bộ này với
     

Chia sẻ trang này